<?xml version="1.0" standalone="no"?>
<!DOCTYPE svg PUBLIC "-//W3C//DTD SVG 1.1//EN" "http://www.w3.org/Graphics/SVG/1.1/DTD/svg11.dtd" >
<svg xmlns="http://www.w3.org/2000/svg">
<metadata>
<json>
<![CDATA[
{
	"fontFamily": "boxicons",
	"majorVersion": 2,
	"minorVersion": 0.7,
	"version": "Version 2.0",
	"fontId": "boxicons",
	"psName": "boxicons",
	"subFamily": "Regular",
	"fullName": "boxicons",
	"description": "Font generated by IcoMoon."
}
]]>
</json>
</metadata>
<defs>
<font id="boxicons" horiz-adv-x="1024">
<font-face units-per-em="1024" ascent="960" descent="-64" />
<missing-glyph horiz-adv-x="1024" />
<glyph unicode="&#x20;" horiz-adv-x="512" d="" />
<glyph unicode="&#xe900;" glyph-name="bxs-add-to-queue" data-tags="bxs-add-to-queue" d="M170.667 21.333h512v85.333h-512v512h-85.333v-512c0-47.061 38.272-85.333 85.333-85.333zM853.333 874.667h-512c-47.061 0-85.333-38.272-85.333-85.333v-512c0-47.061 38.272-85.333 85.333-85.333h512c47.061 0 85.333 38.272 85.333 85.333v512c0 47.061-38.272 85.333-85.333 85.333zM768 490.667h-128v-128h-85.333v128h-128v85.333h128v128h85.333v-128h128v-85.333z" />
<glyph unicode="&#xe901;" glyph-name="bxs-adjust" data-tags="bxs-adjust" d="M512 874.667c-231.296 0-426.667-195.413-426.667-426.667s195.371-426.667 426.667-426.667 426.667 195.413 426.667 426.667-195.371 426.667-426.667 426.667zM512 149.333v597.333c163.371 0 298.667-135.211 298.667-298.667 0-163.328-135.296-298.667-298.667-298.667z" />
<glyph unicode="&#xe902;" glyph-name="bxs-adjust-alt" data-tags="bxs-adjust-alt" d="M813.696 146.304c163.541 163.541 163.541 439.893 0 603.435s-439.893 163.541-603.435 0-163.541-439.893 0-603.435 439.893-163.541 603.435 0zM300.843 659.157c115.456 115.499 306.816 115.541 422.315 0l-422.315-422.315c-115.541 115.499-115.627 306.773 0 422.315z" />
<glyph unicode="&#xe903;" glyph-name="bxs-alarm" data-tags="bxs-alarm" d="M512 789.333c-208.128 0-384-175.872-384-384s175.872-384 384-384c208.171 0 384 175.872 384 384s-175.829 384-384 384zM725.333 362.667h-256v256h85.333v-170.667h170.667v-85.333zM865.808 673.804l-128.43 128.014 60.242 60.438 128.43-128.014zM225.384 862.117l60.425-60.254-127.589-127.95-60.425 60.254z" />
<glyph unicode="&#xe904;" glyph-name="bxs-alarm-add" data-tags="bxs-alarm-add" d="M512 789.333c-208.171 0-384-175.829-384-384s175.829-384 384-384 384 175.829 384 384-175.829 384-384 384zM682.667 362.667h-128v-128h-85.333v128h-128v85.333h128v128h85.333v-128h128v-85.333zM737.445 801.836l60.253 60.426 128.405-128.038-60.253-60.426zM225.384 862.117l60.425-60.254-127.589-127.95-60.425 60.254z" />
<glyph unicode="&#xe905;" glyph-name="bxs-alarm-exclamation" data-tags="bxs-alarm-exclamation" d="M737.445 801.836l60.253 60.426 128.405-128.038-60.253-60.426zM285.778 801.834l-127.586-127.952-60.426 60.253 127.586 127.952zM512 789.333c-208.171 0-384-175.829-384-384s175.829-384 384-384 384 175.829 384 384-175.829 384-384 384zM554.667 192h-85.333v85.333h85.333v-85.333zM554.667 362.667h-85.333v256h85.333v-256z" />
<glyph unicode="&#xe906;" glyph-name="bxs-alarm-off" data-tags="bxs-alarm-off" d="M865.808 673.804l-128.43 128.014 60.242 60.438 128.43-128.014zM926.165 94.165l-97.579 97.621c42.197 61.525 67.413 135.168 67.413 213.547 0 208.128-175.829 384-384 384-78.421 0-152.021-25.173-213.589-67.456l-46.251 46.293 33.621 33.707-60.416 60.245-33.536-33.621-33.664 33.664-60.331-60.331 768-768 60.331 60.331zM725.333 362.667h-67.669l-85.333 85.333h153.003v-85.333zM469.333 618.667h85.333v-153.003l-85.333 85.333v67.669zM512 21.333c70.741 0 137.557 20.693 195.157 55.68l-523.477 523.477c-35.029-57.643-55.68-124.416-55.68-195.157 0-208.128 175.872-384 384-384z" />
<glyph unicode="&#xe907;" glyph-name="bxs-alarm-snooze" data-tags="bxs-alarm-snooze" d="M737.445 801.836l60.253 60.426 128.405-128.038-60.253-60.426zM285.778 801.834l-127.586-127.952-60.426 60.253 127.586 127.952zM512 789.333c-208.128 0-384-175.829-384-384s175.872-384 384-384c208.171 0 384 175.829 384 384s-175.829 384-384 384zM682.667 234.667h-335.744l170.667 256h-176.256v85.333h335.701l-44.16-66.304c-0.043 0-0.043-0.043-0.043-0.043l-126.421-189.653h176.256v-85.333z" />
<glyph unicode="&#xe908;" glyph-name="bxs-album" data-tags="bxs-album" d="M512 874.667c-235.264 0-426.667-191.403-426.667-426.667s191.403-426.667 426.667-426.667 426.667 191.403 426.667 426.667-191.403 426.667-426.667 426.667zM315.435 530.987c-11.136-26.283-16.768-54.187-16.768-82.987h-85.333c0 40.277 7.936 79.403 23.509 116.267 15.061 35.584 36.565 67.499 64 94.933s59.349 48.939 94.933 64l33.237-78.592c-25.429-10.752-48.213-26.112-67.84-45.739s-34.987-42.453-45.739-67.883zM511.701 362.667c-47.275 0-85.632 38.315-85.632 85.632s38.315 85.632 85.632 85.632 85.632-38.357 85.632-85.632-38.315-85.632-85.632-85.632z" />
<glyph unicode="&#xe909;" glyph-name="bxs-ambulance" data-tags="bxs-ambulance" d="M932.565 427.307l-115.584 192.64c-15.317 25.515-43.349 41.387-73.131 41.387h-103.851v85.333c0 23.595-19.072 42.667-42.667 42.667h-426.667c-47.061 0-85.333-38.272-85.333-85.333v-426.667c0-31.829 17.749-59.349 43.648-73.984 5.291-77.611 69.419-139.349 148.352-139.349 75.051 0 136.704 55.851 147.157 128h132.352c10.453-72.149 72.107-128 147.157-128s136.704 55.851 147.157 128h2.176c47.061 0 85.333 38.272 85.333 85.333v128c0 7.765-2.091 15.317-6.101 21.973zM277.333 149.333c-35.285 0-64 28.715-64 64s28.715 64 64 64 64-28.715 64-64-28.715-64-64-64zM512 490.667h-85.333v-85.333h-85.333v85.333h-85.333v85.333h85.333v85.333h85.333v-85.333h85.333v-85.333zM704 149.333c-35.285 0-64 28.715-64 64s28.715 64 64 64 64-28.715 64-64-28.715-64-64-64zM640 448v128h103.851l76.8-128h-180.651z" />
<glyph unicode="&#xe90a;" glyph-name="bxs-analyse" data-tags="bxs-analyse" d="M197.376 581.205c17.152 40.704 41.728 77.184 72.96 108.416 31.403 31.36 67.883 55.936 108.459 72.96 82.56 34.816 178.389 35.285 261.547 1.749 2.005-57.387 48.469-102.997 106.325-102.997 59.136 0 106.667 47.531 106.667 106.667s-47.531 106.667-106.667 106.667c-29.397 0-55.979-11.776-75.221-30.933-103.723 41.515-222.848 40.875-325.76-2.517-50.773-21.333-96.427-52.053-135.68-91.264-39.083-39.040-69.76-84.693-91.221-135.595-22.187-52.608-33.451-108.587-33.451-166.357h85.333c0 46.336 9.003 91.136 26.709 133.205zM826.581 314.795c-17.109-40.619-41.685-77.141-72.96-108.416s-67.797-55.851-108.459-72.96c-82.603-34.816-178.432-35.285-261.547-1.749-1.963 57.387-48.427 102.997-106.283 102.997-59.136 0-106.667-47.531-106.667-106.667s47.531-106.667 106.667-106.667c29.397 0 55.979 11.776 75.221 30.933 50.645-20.352 104.192-30.933 159.445-30.933 57.771 0 113.707 11.264 166.272 33.408 50.859 21.461 96.555 52.181 135.68 91.307s69.845 84.779 91.307 135.637c22.144 52.608 33.408 108.544 33.408 166.315h-85.333c0-46.293-9.003-91.093-26.752-133.205zM512 641.621c-106.752 0-193.621-86.869-193.621-193.621s86.869-193.621 193.621-193.621c106.752 0 193.621 86.869 193.621 193.621s-86.869 193.621-193.621 193.621z" />
<glyph unicode="&#xe90b;" glyph-name="bxs-angry" data-tags="bxs-angry" d="M512 874.667c-235.264 0-426.667-191.403-426.667-426.667s191.403-426.667 426.667-426.667 426.667 191.403 426.667 426.667c0 235.264-191.403 426.667-426.667 426.667zM298.667 512c0 0.299 0.085 0.64 0.085 0.939l-58.581 23.424 31.659 79.232 213.333-85.333-31.659-79.232-43.989 17.621c-0.597-0.597-0.981-1.323-1.579-1.877-11.605-11.605-27.605-18.773-45.269-18.773s-33.664 7.168-45.269 18.731-18.731 27.605-18.731 45.269zM341.333 234.667c0 0 42.667 128 170.667 128s170.667-128 170.667-128h-341.333zM724.736 512.299c0-17.579-7.125-33.493-18.688-45.056s-27.477-18.688-45.056-18.688-33.493 7.125-45.056 18.688c-0.469 0.469-0.811 1.024-1.237 1.493l-44.245-17.707-31.659 79.232 213.333 85.333 31.659-79.232-59.136-23.637c0.043-0.128 0.085-0.299 0.085-0.427z" />
<glyph unicode="&#xe90c;" glyph-name="bxs-arch" data-tags="bxs-arch" d="M896 618.667v85.333h-768v-597.333h-42.667v-85.333h256v298.667c0 6.955 1.963 170.667 170.667 170.667 163.029 0 170.368-153.685 170.667-170.667v-298.667h256v85.333h-42.667v512zM85.333 874.667h853.333v-85.333h-853.333z" />
<glyph unicode="&#xe90d;" glyph-name="bxs-archive" data-tags="bxs-archive" d="M926.037 734.293l-127.872 127.872c-7.979 8.021-18.816 12.501-30.165 12.501h-512c-11.349 0-22.187-4.48-30.165-12.501l-127.872-127.872c-7.808-7.723-12.629-18.432-12.629-30.251v-554.709c0-47.104 38.229-85.333 85.333-85.333h682.667c47.104 0 85.333 38.229 85.333 85.333v554.709c0 11.819-4.821 22.528-12.629 30.251zM273.664 789.333h476.672l42.667-42.667h-562.005l42.667 42.667zM725.333 405.333c0-23.595 0-42.667 0-42.667h-341.333c-23.595 0-85.333 0-85.333 0v170.667h85.333v-85.333h256v85.333h85.333v-128z" />
<glyph unicode="&#xe90e;" glyph-name="bxs-archive-in" data-tags="bxs-archive-in" d="M926.123 734.208l-127.957 127.957c-7.979 8.021-18.816 12.501-30.165 12.501h-512c-11.307 0-22.187-4.48-30.165-12.501l-127.957-127.957c-7.765-7.723-12.544-18.432-12.544-30.208v-554.667c0-47.061 38.272-85.333 85.333-85.333h682.667c47.061 0 85.333 38.272 85.333 85.333v554.667c0 11.819-4.779 22.485-12.544 30.208zM273.664 789.333h476.672l42.667-42.667h-562.005l42.667 42.667zM512 192l-213.333 213.333h128v128h170.667v-128h128l-213.333-213.333z" />
<glyph unicode="&#xe90f;" glyph-name="bxs-archive-out" data-tags="bxs-archive-out" d="M926.123 734.208l-127.957 127.957c-7.979 8.021-18.816 12.501-30.165 12.501h-512c-11.349 0-22.187-4.48-30.165-12.501l-127.957-127.957c-7.765-7.723-12.544-18.389-12.544-30.208v-554.667c0-47.061 38.272-85.333 85.333-85.333h682.667c47.061 0 85.333 38.272 85.333 85.333v554.667c0 11.819-4.779 22.485-12.544 30.208zM273.664 789.333h476.672l42.667-42.667h-562.005l42.667 42.667zM597.333 362.667v-128h-170.667v128h-128l213.333 213.333 213.333-213.333h-128z" />
<glyph unicode="&#xe910;" glyph-name="bxs-area" data-tags="bxs-area" d="M128 149.333c0-47.104 38.229-85.333 85.333-85.333h597.333c47.104 0 85.333 38.229 85.333 85.333v597.333c0 47.104-38.229 85.333-85.333 85.333h-597.333c-47.104 0-85.333-38.229-85.333-85.333v-597.333zM512 704h213.333c23.595 0 42.667 0 42.667 0v-256h-85.333v170.667h-170.667v85.333zM256 448h85.333v-170.667h170.667v-85.333h-213.333c-23.552 0-42.667 0-42.667 0v256z" />
<glyph unicode="&#xe911;" glyph-name="bxs-arrow-from-bottom" data-tags="bxs-arrow-from-bottom" d="M256 192h512v-85.333h-512zM512 789.333l-256-256h213.333v-256h85.333v256h213.333z" />
<glyph unicode="&#xe912;" glyph-name="bxs-arrow-from-left" data-tags="bxs-arrow-from-left" d="M170.667 704h85.333v-512h-85.333zM597.333 490.667h-256v-85.333h256v-213.333l256 256-256 256z" />
<glyph unicode="&#xe913;" glyph-name="bxs-arrow-from-right" data-tags="bxs-arrow-from-right" d="M768 704h85.333v-512h-85.333zM426.667 192v213.333h256v85.333h-256v213.333l-256-256z" />
<glyph unicode="&#xe914;" glyph-name="bxs-arrow-from-top" data-tags="bxs-arrow-from-top" d="M256 789.333h512v-85.333h-512zM469.333 618.667v-256h-213.333l256-256 256 256h-213.333v256z" />
<glyph unicode="&#xe915;" glyph-name="bxs-arrow-to-bottom" data-tags="bxs-arrow-to-bottom" d="M256 192h512v-85.333h-512zM469.333 789.333v-256h-213.333l256-256 256 256h-213.333v256z" />
<glyph unicode="&#xe916;" glyph-name="bxs-arrow-to-left" data-tags="bxs-arrow-to-left" d="M170.667 704h85.333v-512h-85.333zM597.333 405.333h256v85.333h-256v213.333l-256-256 256-256z" />
<glyph unicode="&#xe917;" glyph-name="bxs-arrow-to-right" data-tags="bxs-arrow-to-right" d="M768 704h85.333v-512h-85.333zM426.667 490.667h-256v-85.333h256v-213.333l256 256-256 256z" />
<glyph unicode="&#xe918;" glyph-name="bxs-arrow-to-top" data-tags="bxs-arrow-to-top" d="M256 789.333h512v-85.333h-512zM469.333 362.667v-256h85.333v256h213.333l-256 256-256-256z" />
<glyph unicode="&#xe919;" glyph-name="bxs-award" data-tags="bxs-award" d="M213.333 576.043c0-98.901 48.555-186.496 122.837-240.896l0.043-0.043c24.277-17.749 51.243-31.957 80.256-41.771 0.725-0.256 1.451-0.555 2.176-0.811 13.483-4.437 27.435-7.893 41.685-10.368 2.645-0.469 5.291-0.853 7.936-1.195 14.336-2.176 28.8-3.627 43.691-3.627 0.043 0 0.043 0 0.043 0s0 0 0 0c14.933 0 29.44 1.451 43.819 3.584 2.603 0.384 5.163 0.768 7.765 1.195 14.336 2.517 28.331 5.931 41.856 10.368 0.64 0.213 1.195 0.469 1.792 0.683 118.101 39.936 203.435 151.509 203.435 282.88 0 164.651-133.973 298.624-298.667 298.624s-298.667-133.973-298.667-298.624zM512 789.333c117.589 0 213.333-95.659 213.333-213.291h-85.333c0 70.528-57.429 127.957-128 127.957v85.333zM320.896 243.413v-222.080l191.104 64 191.104-64 0.043 222.080c-56.405-32.512-121.515-51.413-191.147-51.413-69.589 0-134.784 18.901-191.104 51.413z" />
<glyph unicode="&#xe91a;" glyph-name="bxs-baby-carriage" data-tags="bxs-baby-carriage" d="M924.416 436.181c2.773 9.387 5.376 18.816 7.296 28.373 0.128 0.725 0.171 1.408 0.341 2.133 0.853 4.181 1.237 8.491 1.92 12.715 1.067 6.699 2.347 13.355 2.987 20.096 1.109 11.093 1.707 22.4 1.707 33.835 0 94.251-38.229 179.584-99.968 241.365-61.781 61.739-147.115 99.968-241.365 99.968v-341.333h-319.275l-36.608 85.333h-156.117v-85.333h99.883l77.995-182.016c-54.229-22.4-92.544-75.776-92.544-137.984 0-82.347 66.987-149.333 149.333-149.333 75.051 0 136.704 55.851 147.157 128h89.685c10.453-72.149 72.107-128 147.157-128 82.347 0 149.333 66.987 149.333 149.333 0 26.88-7.723 51.755-20.181 73.6 1.792 1.749 3.797 3.285 5.589 5.077 15.36 15.403 29.355 32.384 41.685 50.517 12.288 18.347 22.869 37.803 31.403 57.984 0.683 1.579 1.109 3.243 1.749 4.821h0.043c0.256 0.597 0.384 1.195 0.64 1.792 3.755 9.387 7.168 18.816 10.027 28.501 0.043 0.171 0.085 0.341 0.128 0.555zM320 149.333c-35.285 0-64 28.715-64 64s28.715 64 64 64 64-28.715 64-64-28.715-64-64-64zM704 149.333c-35.285 0-64 28.715-64 64s28.715 64 64 64 64-28.715 64-64-28.715-64-64-64z" />
<glyph unicode="&#xe91b;" glyph-name="bxs-backpack" data-tags="bxs-backpack" d="M682.667 320c0 23.552-19.115 42.667-42.667 42.667h-256c-23.509 0-42.667-19.115-42.667-42.667v-85.333h341.333v85.333zM341.333 149.333h341.333v-128h-341.333zM896 448c0 126.592-92.459 231.765-213.333 252.16v46.507c0 70.571-57.429 128-128 128h-85.333c-70.571 0-128-57.429-128-128v-46.507c-120.875-20.395-213.333-125.568-213.333-252.16v-341.333c0-47.061 38.272-85.333 85.333-85.333h42.667v298.667c0 70.571 57.429 128 128 128h256c70.571 0 128-57.429 128-128v-298.667h42.667c47.061 0 85.333 38.272 85.333 85.333v341.333zM426.667 746.667c0 23.552 19.157 42.667 42.667 42.667h85.333c23.552 0 42.667-19.115 42.667-42.667v-42.667h-170.667v42.667z" />
<glyph unicode="&#xe91c;" glyph-name="bxs-badge" data-tags="bxs-badge" d="M851.84 596.437c0.981 7.424 1.493 14.848 1.493 22.229 0 101.504-91.435 182.955-192.896 169.173-29.568 52.608-85.888 86.827-148.437 86.827s-118.869-34.219-148.437-86.827c-101.675 13.781-192.896-67.669-192.896-169.173 0-7.381 0.512-14.805 1.493-22.229-52.608-29.611-86.827-85.931-86.827-148.437s34.219-118.827 86.827-148.437c-0.981-7.424-1.493-14.848-1.493-22.229 0-101.504 91.221-182.741 192.896-169.173 29.568-52.608 85.888-86.827 148.437-86.827s118.869 34.219 148.437 86.827c101.461-13.568 192.896 67.669 192.896 169.173 0 7.381-0.512 14.805-1.493 22.229 52.608 29.611 86.827 85.931 86.827 148.437s-34.219 118.827-86.827 148.437z" />
<glyph unicode="&#xe91d;" glyph-name="bxs-badge-check" data-tags="bxs-badge-check" d="M851.84 596.437c0.981 7.424 1.493 14.848 1.493 22.229 0 101.504-91.435 182.955-192.896 169.173-29.568 52.608-85.888 86.827-148.437 86.827s-118.869-34.219-148.437-86.827c-101.675 13.781-192.896-67.669-192.896-169.173 0-7.381 0.512-14.805 1.493-22.229-52.608-29.611-86.827-85.931-86.827-148.437s34.219-118.827 86.827-148.437c-0.981-7.424-1.493-14.848-1.493-22.229 0-101.504 91.221-182.741 192.896-169.173 29.568-52.608 85.888-86.827 148.437-86.827s118.869 34.219 148.437 86.827c101.461-13.568 192.896 67.669 192.896 169.173 0 7.381-0.512 14.805-1.493 22.229 52.608 29.611 86.827 85.931 86.827 148.437s-34.219 118.827-86.827 148.437zM467.413 259.584l-156.459 158.464 60.757 59.904 96.299-97.536 184.619 183.211 60.075-60.587-245.291-243.456z" />
<glyph unicode="&#xe91e;" glyph-name="bxs-badge-dollar" data-tags="bxs-badge-dollar" d="M87.339 334.165c2.901-10.923 10.027-20.267 19.84-25.899l81.493-47.104v-93.824c0-23.595 19.072-42.667 42.667-42.667h93.824l47.104-81.493c5.675-9.771 15.019-16.896 25.941-19.883 3.627-0.939 7.296-1.451 11.008-1.451 7.424 0 14.805 1.963 21.376 5.76l81.408 47.061 81.493-47.104c9.771-5.675 21.461-7.168 32.384-4.267s20.267 10.027 25.899 19.84l47.061 81.493h93.824c23.595 0 42.667 19.072 42.667 42.667v93.824l81.493 47.104c20.395 11.819 27.392 37.931 15.573 58.325l-47.061 81.451 47.104 81.408c11.776 20.437 4.779 46.507-15.573 58.283l-81.493 47.104v93.867c0 23.595-19.072 42.667-42.667 42.667h-93.824l-47.061 81.451c-5.675 9.771-15.019 16.939-25.899 19.883-10.923 2.987-22.571 1.408-32.384-4.267l-81.536-47.061-81.451 47.104c-20.437 11.819-46.507 4.779-58.283-15.573l-47.104-81.493h-93.824c-23.595 0-42.667-19.072-42.667-42.667v-93.824l-81.493-47.104c-9.813-5.717-16.939-15.061-19.84-25.984-2.901-10.965-1.365-22.571 4.267-32.384l47.104-81.408-47.104-81.408c-5.632-9.856-7.168-21.461-4.267-32.427zM512 405.333c-148.48 0-170.667 80.171-170.667 128 0 54.912 43.904 110.208 128 124.373v45.781h85.333v-47.317c73.984-17.493 102.4-79.061 102.4-122.837h-42.667l-42.667-0.768c-0.597 16.213-9.173 43.435-59.733 43.435-55.424 0-85.333-21.973-85.333-42.667 0-15.957 0-42.667 85.333-42.667 148.48 0 170.667-80.171 170.667-128 0-54.912-43.904-110.208-128-124.373v-46.293h-85.333v46.080c-99.797 15.659-128 85.461-128 124.587h85.333c0.469-6.101 6.784-42.667 85.333-42.667 58.88 0 85.333 24.96 85.333 42.667 0 13.867 0 42.667-85.333 42.667z" />
<glyph unicode="&#xe91f;" glyph-name="bxs-ball" data-tags="bxs-ball" d="M863.872 830.549c-2.944 0.768-74.325 18.475-172.885 18.475-121.259 0-293.035-27.307-422.827-157.312-227.84-228.224-142.507-580.693-138.752-595.627 3.84-15.232 15.744-27.179 31.061-30.976 2.944-0.768 73.643-18.176 171.435-18.176 121.557 0 293.717 27.349 423.765 157.355 227.627 227.627 142.976 580.267 139.264 595.157-3.883 15.317-15.787 27.264-31.061 31.104zM712.96 435.371l-60.331-60.331-76.501 76.459-67.669-67.669 76.459-76.501-60.331-60.331-76.459 76.501-76.501-76.501-60.331 60.331 76.501 76.501-76.501 76.544 60.331 60.331 76.501-76.544 67.669 67.669-76.544 76.501 60.331 60.331 76.544-76.501 76.501 76.501 60.331-60.331-76.501-76.501 76.501-76.459z" />
<glyph unicode="&#xe920;" glyph-name="bxs-band-aid" data-tags="bxs-band-aid" d="M496.896 794.965l-331.861-331.861c-99.797-99.84-99.797-262.229 0-362.027 49.92-49.877 115.456-74.837 180.992-74.837 65.579 0 131.115 24.96 181.035 74.837l331.861 331.861c99.797 99.84 99.797 262.229 0 362.027-99.84 99.797-262.229 99.755-362.027 0zM384 405.333c-23.595 0-42.667 19.115-42.667 42.667 0 23.595 19.072 42.667 42.667 42.667s42.667-19.072 42.667-42.667c0-23.552-19.072-42.667-42.667-42.667zM512 277.333c-23.595 0-42.667 19.115-42.667 42.667 0 23.595 19.072 42.667 42.667 42.667s42.667-19.072 42.667-42.667c0-23.552-19.072-42.667-42.667-42.667zM512 533.333c-23.595 0-42.667 19.115-42.667 42.667 0 23.595 19.072 42.667 42.667 42.667s42.667-19.072 42.667-42.667c0-23.552-19.072-42.667-42.667-42.667zM640 405.333c-23.595 0-42.667 19.115-42.667 42.667 0 23.595 19.072 42.667 42.667 42.667s42.667-19.072 42.667-42.667c0-23.552-19.072-42.667-42.667-42.667z" />
<glyph unicode="&#xe921;" glyph-name="bxs-bank" data-tags="bxs-bank" d="M85.333 618.667v-170.709h42.667v-255.957h-42.667v-128h853.333v128h-42.667v255.957h42.667v170.709l-426.667 256-426.667-256zM256 192v255.957h85.333v-255.957h-85.333zM469.333 192v255.957h85.333v-255.957h-85.333zM768 192h-85.333v255.957h85.333v-255.957zM597.333 618.667c0-47.104-38.229-85.333-85.333-85.333s-85.333 38.229-85.333 85.333 38.229 85.333 85.333 85.333 85.333-38.229 85.333-85.333z" />
<glyph unicode="&#xe922;" glyph-name="bxs-bar-chart-alt-2" data-tags="bxs-bar-chart-alt-2" d="M256 64h-128c-23.595 0-42.667 19.115-42.667 42.667v341.333c0 23.552 19.072 42.667 42.667 42.667h128c23.595 0 42.667-19.115 42.667-42.667v-341.333c0-23.552-19.072-42.667-42.667-42.667zM554.667 64h-128c-23.595 0-42.667 19.115-42.667 42.667v725.333c0 23.552 19.072 42.667 42.667 42.667h128c23.595 0 42.667-19.115 42.667-42.667v-725.333c0-23.552-19.072-42.667-42.667-42.667zM853.333 64h-128c-23.595 0-42.667 19.115-42.667 42.667v469.333c0 23.552 19.072 42.667 42.667 42.667h128c23.595 0 42.667-19.115 42.667-42.667v-469.333c0-23.552-19.072-42.667-42.667-42.667z" />
<glyph unicode="&#xe923;" glyph-name="bxs-bar-chart-square" data-tags="bxs-bar-chart-square" d="M896 149.333v597.333c0 47.104-38.229 85.333-85.333 85.333h-597.333c-47.104 0-85.333-38.229-85.333-85.333v-597.333c0-47.104 38.229-85.333 85.333-85.333h597.333c47.104 0 85.333 38.229 85.333 85.333zM384 192h-85.333v256h85.333v-256zM554.667 192h-85.333v469.333h85.333v-469.333zM725.333 192h-85.333v341.333h85.333v-341.333z" />
<glyph unicode="&#xe924;" glyph-name="bxs-barcode" data-tags="bxs-barcode" d="M853.333 789.333h-682.667c-47.104 0-85.333-38.229-85.333-85.333v-512c0-47.104 38.229-85.333 85.333-85.333h682.667c47.104 0 85.333 38.229 85.333 85.333v512c0 47.104-38.229 85.333-85.333 85.333zM341.333 234.667h-128v426.667h128v-426.667zM426.667 234.667h-42.667v426.667h42.667v-426.667zM512 234.667h-42.667v426.667h42.667v-426.667zM682.667 234.667h-128v426.667h128v-426.667zM810.667 234.667h-85.333v426.667h85.333v-426.667z" />
<glyph unicode="&#xe925;" glyph-name="bxs-baseball" data-tags="bxs-baseball" d="M937.984 437.931c2.645 112.64-38.571 226.048-124.288 311.808-85.76 85.717-199.168 126.933-311.808 124.288 5.547-62.805-4.267-126.336-28.715-184.021l-78.507 33.28c18.645 43.947 26.112 92.245 22.443 140.117-75.819-17.195-147.883-54.784-206.805-113.707-58.965-58.965-96.597-131.115-113.749-207.019 36.949-2.816 74.325 1.067 109.909 11.776l24.533-81.749c-46.933-14.080-96.299-18.901-144.981-14.677-2.645-112.597 38.571-226.048 124.288-311.765 85.76-85.717 199.168-126.933 311.765-124.288-4.267 48.725 0.597 98.091 14.677 144.981l81.749-24.533c-10.709-35.584-14.635-72.96-11.776-109.909 75.904 17.152 148.096 54.784 207.061 113.749 58.923 58.923 96.512 130.987 113.707 206.848-47.872 3.669-96.171-3.84-140.117-22.443l-33.28 78.549c57.557 24.448 121.131 34.261 183.893 28.715zM391.253 568.619c-27.563-27.605-59.136-50.731-93.525-68.779l-39.552 75.605c26.795 13.995 51.285 32.043 72.832 53.547 13.781 13.781 26.24 28.971 37.077 45.184l70.955-47.488c-13.995-20.907-30.080-40.448-47.787-58.069zM693.077 267.051c-21.589-21.589-39.637-46.080-53.632-72.875l-75.605 39.552c18.048 34.432 41.173 65.963 68.821 93.611 17.579 17.621 37.12 33.707 57.984 47.701l47.488-70.955c-16.171-10.837-31.36-23.296-45.056-37.035z" />
<glyph unicode="&#xe926;" glyph-name="bxs-basket" data-tags="bxs-basket" d="M346.965 853.163l-158.379-277.163h-60.587c-13.312 0-25.813-6.229-33.92-16.768-8.064-10.581-10.752-24.32-7.253-37.12l119.424-437.888c10.069-37.035 43.947-62.891 82.347-62.891h446.848c38.315 0 72.192 25.813 82.347 62.933l119.424 437.888c3.499 12.8 0.853 26.539-7.253 37.12-8.149 10.496-20.651 16.725-33.963 16.725h-60.587l-158.379 277.163-74.069-42.325 134.187-234.837h-450.304l134.187 234.837-74.069 42.325zM597.333 405.333h85.333v-213.333h-85.333v213.333zM341.333 405.333h85.333v-213.333h-85.333v213.333z" />
<glyph unicode="&#xe927;" glyph-name="bxs-basketball" data-tags="bxs-basketball" d="M781.995 778.325c-73.813 60.459-163.371 91.947-253.824 95.36 17.536-105.088-8.405-215.936-78.293-303.232l62.123-62.123 269.995 269.995zM328.576 571.093l-146.901 146.901c-48.555-59.349-78.336-128.768-90.112-200.704 81.28-16.085 167.808 2.048 237.013 53.803zM842.325 717.995l-269.995-269.995 62.123-62.123c87.339 69.888 198.187 95.829 303.232 78.293-3.413 90.453-34.901 180.011-95.36 253.824zM932.437 378.709c-81.237 16.085-167.808-2.048-237.013-53.803l146.901-146.901c48.597 59.307 78.336 128.768 90.112 200.704zM388.907 631.424c51.755 69.205 69.888 155.733 53.803 237.013-71.936-11.776-141.355-41.515-200.704-90.112l146.901-146.901zM581.291 27.563c71.936 11.733 141.355 41.557 200.704 90.069l-146.901 146.901c-51.755-69.163-69.888-155.691-53.803-236.971zM512 387.669l-269.995-269.995c73.813-60.459 163.371-91.947 253.824-95.36-17.536 105.088 8.405 215.936 78.293 303.232l-62.123 62.123zM181.675 178.005l269.995 269.995-62.123 62.123c-87.339-69.888-198.187-95.829-303.232-78.293 3.413-90.453 34.901-180.011 95.36-253.824z" />
<glyph unicode="&#xe928;" glyph-name="bxs-bath" data-tags="bxs-bath" d="M896 533.333h-597.333v123.179c0 42.539 28.928 82.048 70.869 88.96 53.376 8.832 99.797-32.341 99.797-84.139h85.333c0 99.712-85.931 179.712-187.648 169.813-88.704-8.619-153.685-88.277-153.685-177.408v-120.405h-85.333c-23.595 0-42.667-19.115-42.667-42.667v-85.333c0-111.189 71.424-205.781 170.667-241.067v-142.933h85.333v128h341.333v-128h85.333v142.933c99.243 35.285 170.667 129.877 170.667 241.067v85.333c0 23.552-19.072 42.667-42.667 42.667z" />
<glyph unicode="&#xe929;" glyph-name="bxs-battery" data-tags="bxs-battery" d="M853.333 618.667c0 47.104-38.229 85.333-85.333 85.333h-597.333c-47.104 0-85.333-38.229-85.333-85.333v-341.333c0-47.104 38.229-85.333 85.333-85.333h597.333c47.104 0 85.333 38.229 85.333 85.333v85.333h85.333v170.667h-85.333v85.333z" />
<glyph unicode="&#xe92a;" glyph-name="bxs-battery-charging" data-tags="bxs-battery-charging" d="M853.333 533.333v85.333c0 47.104-38.229 85.333-85.333 85.333h-597.333c-47.104 0-85.333-38.229-85.333-85.333v-341.333c0-47.104 38.229-85.333 85.333-85.333h597.333c47.104 0 85.333 38.229 85.333 85.333v85.333h85.333v170.667h-85.333zM384 234.667l85.333 165.973-170.667 47.36 256 213.333-42.667-165.973 170.667-47.36-298.667-213.333z" />
<glyph unicode="&#xe92b;" glyph-name="bxs-battery-full" data-tags="bxs-battery-full" d="M170.667 192h597.333c47.104 0 85.333 38.229 85.333 85.333v85.333h85.333v170.667h-85.333v85.333c0 47.104-38.229 85.333-85.333 85.333h-597.333c-47.104 0-85.333-38.229-85.333-85.333v-341.333c0-47.104 38.229-85.333 85.333-85.333zM213.333 576h512v-256h-512v256z" />
<glyph unicode="&#xe92c;" glyph-name="bxs-battery-low" data-tags="bxs-battery-low" d="M853.333 618.667c0 47.104-38.229 85.333-85.333 85.333h-597.333c-47.104 0-85.333-38.229-85.333-85.333v-341.333c0-47.104 38.229-85.333 85.333-85.333h597.333c47.104 0 85.333 38.229 85.333 85.333v85.333h85.333v170.667h-85.333v85.333zM213.333 320v256h128l170.667-256h-298.667z" />
<glyph unicode="&#xe92d;" glyph-name="bxs-bed" data-tags="bxs-bed" d="M853.333 552.277v279.723h-85.333v-85.333h-512v85.333h-85.333v-279.765c-50.773-29.568-85.333-84.011-85.333-146.901v-170.667c0-23.595 19.115-42.667 42.667-42.667h42.667v-170.667h85.333v170.667h512v-170.667h85.333v170.667h42.667c23.595 0 42.667 19.072 42.667 42.667v170.667c0 62.891-34.603 117.333-85.333 146.944zM469.333 576h-213.333v85.333h213.333v-85.333zM768 576h-213.333v85.333h213.333v-85.333z" />
<glyph unicode="&#xe92e;" glyph-name="bxs-been-here" data-tags="bxs-been-here" d="M512 874.667c-188.203 0-341.333-153.131-341.333-341.12-1.237-274.987 328.363-502.997 341.333-512.213 0 0 342.571 237.227 341.333 512 0 188.203-153.131 341.333-341.333 341.333zM469.333 302.336l-158.165 158.165 60.331 60.331 97.835-97.835 225.835 225.835 60.331-60.331-286.165-286.165z" />
<glyph unicode="&#xe92f;" glyph-name="bxs-beer" data-tags="bxs-beer" d="M853.333 704h-85.333v85.333c0 23.552-19.072 42.667-42.667 42.667h-597.333c-23.595 0-42.667-19.115-42.667-42.667v-640c0-70.571 57.429-128 128-128h426.667c70.571 0 128 57.429 128 128v42.667h85.333c47.061 0 85.333 38.272 85.333 85.333v341.333c0 47.061-38.272 85.333-85.333 85.333zM341.333 234.667h-85.333v426.667h85.333v-426.667zM597.333 234.667h-85.333v426.667h85.333v-426.667zM853.333 277.333h-85.333v341.333h85.333v-341.333z" />
<glyph unicode="&#xe930;" glyph-name="bxs-bell" data-tags="bxs-bell" d="M512 21.333c55.936 0 102.699 35.584 120.235 85.333h-240.469c17.536-49.749 64.299-85.333 120.235-85.333zM810.667 337.664v195.669c0 137.259-93.227 252.885-219.52 287.659-12.501 31.488-43.051 53.675-79.147 53.675s-66.645-22.187-79.147-53.675c-126.293-34.816-219.52-150.4-219.52-287.659v-195.669l-72.832-72.832c-8.021-7.979-12.501-18.816-12.501-30.165v-42.667c0-23.595 19.072-42.667 42.667-42.667h682.667c23.595 0 42.667 19.072 42.667 42.667v42.667c0 11.349-4.48 22.187-12.501 30.165l-72.832 72.832z" />
<glyph unicode="&#xe931;" glyph-name="bxs-bell-minus" data-tags="bxs-bell-minus" d="M512 21.333c55.936 0 102.699 35.584 120.235 85.333h-240.469c17.536-49.749 64.299-85.333 120.235-85.333zM883.499 264.832l-72.832 72.832v195.669c0 137.259-93.227 252.843-219.52 287.701-12.501 31.445-43.051 53.632-79.147 53.632s-66.645-22.187-79.147-53.675c-126.293-34.816-219.52-150.4-219.52-287.659v-195.669l-72.832-72.832c-8.021-7.979-12.501-18.859-12.501-30.165v-42.667c0-23.552 19.072-42.667 42.667-42.667h682.667c23.595 0 42.667 19.115 42.667 42.667v42.667c0 11.307-4.48 22.187-12.501 30.165zM682.667 448h-341.333v85.333h341.333v-85.333z" />
<glyph unicode="&#xe932;" glyph-name="bxs-bell-off" data-tags="bxs-bell-off" d="M868.053 152.277c16.256 6.059 27.947 21.333 27.947 39.723v42.667c0 11.349-4.48 22.187-12.501 30.165l-72.832 72.832v195.669c0 137.259-93.227 252.885-219.52 287.659-12.501 31.488-43.051 53.675-79.147 53.675s-66.645-22.187-79.147-53.675c-56.448-15.531-105.088-48.128-142.763-90.752l-131.925 131.925-60.331-60.331 768-768 60.331 60.331-58.112 58.112zM512 21.333c55.936 0 102.699 35.584 120.235 85.333h-240.469c17.536-49.749 64.299-85.333 120.235-85.333zM213.333 533.333v-195.669l-72.832-72.832c-8.021-7.979-12.501-18.816-12.501-30.165v-42.667c0-23.595 19.072-42.667 42.667-42.667h464.171l-418.603 418.603c-1.323-11.435-2.901-22.827-2.901-34.603z" />
<glyph unicode="&#xe933;" glyph-name="bxs-bell-plus" data-tags="bxs-bell-plus" d="M512 21.333c55.936 0 102.699 35.584 120.235 85.333h-240.469c17.536-49.749 64.299-85.333 120.235-85.333zM883.499 264.832l-72.832 72.832v195.669c0 137.259-93.227 252.843-219.52 287.701-12.501 31.445-43.051 53.632-79.147 53.632s-66.645-22.187-79.147-53.675c-126.293-34.816-219.52-150.4-219.52-287.659v-195.669l-72.832-72.832c-8.021-7.979-12.501-18.859-12.501-30.165v-42.667c0-23.552 19.072-42.667 42.667-42.667h682.667c23.595 0 42.667 19.115 42.667 42.667v42.667c0 11.307-4.48 22.187-12.501 30.165zM682.667 448h-128v-128h-85.333v128h-128v85.333h128v128h85.333v-128h128v-85.333z" />
<glyph unicode="&#xe934;" glyph-name="bxs-bell-ring" data-tags="bxs-bell-ring" d="M243.413 801.707l-60.16 60.587c-140.587-139.648-140.587-240.853-140.587-371.627h42.667l42.667 2.688c0 124.928 0 193.749 115.413 308.352zM840.704 862.293l-60.075-60.587c115.371-114.603 115.371-183.424 115.371-311.040l85.333 2.688c0 128.085 0 229.291-140.629 368.939zM512 21.333c55.936 0 102.699 35.584 120.235 85.333h-240.469c17.536-49.749 64.299-85.333 120.235-85.333zM810.667 337.664v195.669c0 137.259-93.227 252.885-219.52 287.659-12.501 31.488-43.051 53.675-79.147 53.675s-66.645-22.187-79.147-53.675c-126.336-34.773-219.52-150.4-219.52-287.659v-195.669l-72.832-72.832c-8.021-7.979-12.501-18.816-12.501-30.165v-42.667c0-23.595 19.115-42.667 42.667-42.667h682.667c23.595 0 42.667 19.072 42.667 42.667v42.667c0 11.349-4.48 22.187-12.501 30.165l-72.832 72.832z" />
<glyph unicode="&#xe935;" glyph-name="bxs-bible" data-tags="bxs-bible" d="M256 21.333h640v85.333h-639.488c-19.712 0.512-43.179 8.32-43.179 42.667s23.467 42.155 43.179 42.667h639.488v597.333c0 47.104-38.229 85.333-85.333 85.333h-554.667c-51.456 0-128-34.091-128-128v-597.333c0-93.909 76.544-128 128-128zM341.333 661.333h128v85.333h85.333v-85.333h128v-85.333h-128v-256h-85.333v256h-128v85.333z" />
<glyph unicode="&#xe936;" glyph-name="bxs-binoculars" data-tags="bxs-binoculars" d="M829.739 731.947c-17.92 59.861-71.936 100.053-134.699 100.053-73.259 0-133.547-56.363-139.819-128h-86.4c-6.315 71.637-66.645 128-140.117 128-62.507 0-116.523-40.192-134.443-100.053l-107.136-357.035c-1.152-3.968-1.792-8.064-1.792-12.245v-42.667c0.043-117.675 95.701-213.333 213.376-213.333 87.253 0 162.219 52.779 195.243 128h36.096c33.024-75.221 107.989-128 195.243-128 117.675 0 213.376 95.701 213.376 213.376v42.624c0 4.181-0.64 8.277-1.792 12.245l-107.136 357.035zM298.709 192c-70.571 0-128.043 57.472-128.043 128 0 3.243 0.725 6.272 0.939 9.472 3.712 49.707 35.413 91.563 79.829 109.312 14.635 5.803 30.507 9.216 47.232 9.216 70.656 0 128-57.301 128-128v-0.384c-0.256-70.357-57.515-127.616-127.957-127.616zM725.291 192c-70.443 0-127.701 57.259-127.957 127.616v0.384c0 70.699 57.344 128 128 128 17.621 0 34.475-3.584 49.749-10.027 45.909-19.456 78.251-65.024 78.251-117.931 0-70.571-57.472-128.043-128.043-128.043z" />
<glyph unicode="&#xe937;" glyph-name="bxs-blanket" data-tags="bxs-blanket" d="M853.333 874.667h-554.667c-117.632 0-213.333-95.701-213.333-213.333v-426.667c0-117.632 95.701-213.333 213.333-213.333h512c70.571 0 128 57.429 128 128s-57.429 128-128 128h-554.667v-85.333h554.667c23.552 0 42.667-19.115 42.667-42.667s-19.115-42.667-42.667-42.667h-512c-70.571 0-128 57.429-128 128s57.429 128 128 128h554.667c47.061 0 85.333 38.272 85.333 85.333v341.333c0 47.061-38.272 85.333-85.333 85.333zM170.667 405.333h0.128c-0.043-0.043-0.085-0.043-0.128-0.085v0.085z" />
<glyph unicode="&#xe938;" glyph-name="bxs-bolt" data-tags="bxs-bolt" d="M732.501 618.667h-177.835l34.389 206.293c4.309 26.027-15.701 49.707-42.112 49.707h-219.819c-20.864 0-38.656-15.104-42.069-35.627l-71.125-426.667c-4.352-26.027 15.701-49.707 42.069-49.707h170.667v-341.333l341.76 531.584c18.261 28.416-2.133 65.749-35.925 65.749z" />
<glyph unicode="&#xe939;" glyph-name="bxs-bolt-circle" data-tags="bxs-bolt-circle" d="M512 874.667c-235.264 0-426.667-191.403-426.667-426.667s191.403-426.667 426.667-426.667 426.667 191.403 426.667 426.667-191.403 426.667-426.667 426.667zM469.333 192v213.333h-170.667l256 298.667v-213.333h170.667l-256-298.667z" />
<glyph unicode="&#xe93a;" glyph-name="bxs-bomb" data-tags="bxs-bomb" d="M780.501 776.832l-46.336-46.336-46.336 46.336c-16.683 16.683-43.648 16.683-60.331 0l-53.291-53.291c-39.381 14.72-81.792 23.125-126.251 23.125-199.936 0-362.624-162.688-362.624-362.667s162.688-362.667 362.624-362.667 362.667 162.688 362.667 362.667c0 39.552-6.571 77.568-18.389 113.237l57.429 57.429c16.683 16.683 16.683 43.648 0 60.331l-55.168 55.168 46.507 46.507c9.771 9.771 36.053 29.995 54.997 29.995h42.667v85.333h-42.667c-59.733 0-110.251-49.792-115.499-55.168zM447.957 533.333c-39.893 0-77.355-15.531-105.6-43.733-28.16-28.203-43.691-65.707-43.691-105.6h-85.333c0 62.635 24.363 121.557 68.651 165.888 44.373 44.373 103.296 68.779 165.973 68.779v-85.333z" />
<glyph unicode="&#xe93b;" glyph-name="bxs-bone" data-tags="bxs-bone" d="M804.352 740.352c-1.792 33.835-15.104 67.243-40.96 93.141-55.552 55.552-145.579 55.552-201.088 0-55.552-55.552-55.552-145.579 0-201.131l-234.624-234.667c-55.552 55.552-145.579 55.552-201.131 0-55.552-55.509-55.552-145.536 0-201.088 25.856-25.856 59.307-39.168 93.141-40.96 1.792-33.835 15.104-67.243 40.96-93.141 55.552-55.552 145.579-55.552 201.088 0 55.552 55.552 55.552 145.579 0 201.131l234.624 234.624c55.552-55.552 145.579-55.552 201.131 0 55.552 55.509 55.552 145.536 0 201.088-25.899 25.899-59.307 39.211-93.141 41.003z" />
<glyph unicode="&#xe93c;" glyph-name="bxs-bong" data-tags="bxs-bong" d="M823.168 606.165l-88.277-88.277c-26.283 29.525-58.197 54.272-94.891 71.723v199.723h42.667v85.333h-341.333v-85.333h42.667v-199.723c-103.211-48.981-170.667-153.771-170.667-269.611 0-164.651 134.016-298.667 298.667-298.667s298.667 134.016 298.667 298.667c0 44.16-9.941 86.699-27.819 125.184l100.651 100.651-60.331 60.331zM440.917 520.917l28.416 10.027v258.389h85.333v-258.389l28.416-10.027c71.296-25.259 122.496-86.229 137.387-158.251h-416.939c14.891 72.021 66.091 132.992 137.387 158.251z" />
<glyph unicode="&#xe93d;" glyph-name="bxs-book" data-tags="bxs-book" d="M256.512 192h639.488v597.333c0 47.104-38.229 85.333-85.333 85.333h-554.667c-51.456 0-128-34.091-128-128v-597.333c0-93.909 76.544-128 128-128h640v85.333h-639.488c-19.712 0.512-43.179 8.32-43.179 42.667s23.467 42.155 43.179 42.667zM341.333 704h384v-85.333h-384v85.333z" />
<glyph unicode="&#xe93e;" glyph-name="bxs-book-add" data-tags="bxs-book-add" d="M256.512 192h639.488v597.333c0 47.061-38.272 85.333-85.333 85.333h-554.667c-51.456 0-128-34.091-128-128v-597.333c0-93.909 76.544-128 128-128h640v85.333h-639.488c-19.712 0.512-43.179 8.277-43.179 42.667s23.467 42.155 43.179 42.667zM341.333 576h128v128h85.333v-128h128v-85.333h-128v-128h-85.333v128h-128v85.333z" />
<glyph unicode="&#xe93f;" glyph-name="bxs-book-alt" data-tags="bxs-book-alt" d="M128 746.667v-597.333c0-93.909 76.544-128 128-128h640v85.333h-639.488c-19.712 0.512-43.179 8.277-43.179 42.667s23.467 42.155 43.179 42.667h639.488v597.333c0 47.061-38.272 85.333-85.333 85.333h-554.667c-51.456 0-128-34.091-128-128z" />
<glyph unicode="&#xe940;" glyph-name="bxs-book-bookmark" data-tags="bxs-book-bookmark" d="M810.667 874.667h-554.667c-51.456 0-128-34.091-128-128v-597.333c0-93.909 76.544-128 128-128h640v85.333h-639.488c-19.712 0.512-43.179 8.277-43.179 42.667 0 4.309 0.384 8.149 1.024 11.648 4.779 24.576 24.917 30.592 42.155 31.019h639.488v597.333c0 47.104-38.229 85.333-85.333 85.333zM810.667 490.667l-85.333 42.667-85.333-42.667v298.667h170.667v-298.667z" />
<glyph unicode="&#xe941;" glyph-name="bxs-book-content" data-tags="bxs-book-content" d="M853.333 832h-682.667c-47.061 0-85.333-38.272-85.333-85.333v-597.333c0-47.061 38.272-85.333 85.333-85.333h682.667c47.061 0 85.333 38.272 85.333 85.333v597.333c0 47.061-38.272 85.333-85.333 85.333zM810.667 661.333v-85.333h-213.333v85.333h213.333zM597.333 490.667h213.333v-85.333h-213.333v85.333zM170.667 149.333v597.333h298.667v-597.333h-298.667z" />
<glyph unicode="&#xe942;" glyph-name="bxs-book-heart" data-tags="bxs-book-heart" d="M256.512 192h639.488v597.333c0 47.061-38.272 85.333-85.333 85.333h-554.667c-51.456 0-128-34.091-128-128v-597.333c0-93.909 76.544-128 128-128h640v85.333h-639.488c-19.712 0.512-43.179 8.277-43.179 42.667 0 4.309 0.384 8.149 1.024 11.648 4.779 24.576 24.917 30.592 42.155 31.019zM368.981 633.941c37.333 36.48 96.213 36.48 133.333 0l9.557-9.344 9.515 9.344c37.163 36.48 96.043 36.48 133.376 0 37.163-36.651 37.163-94.507 0-130.944l-142.848-140.331-142.891 140.331c-37.205 36.48-37.205 94.293-0.043 130.944z" />
<glyph unicode="&#xe943;" glyph-name="bxs-bookmark" data-tags="bxs-bookmark" d="M810.667 527.701v256c0 47.061-38.272 85.333-85.333 85.333h-426.667c-47.061 0-85.333-38.272-85.333-85.333v-762.368l298.667 199.083 298.667-199.083v506.368z" />
<glyph unicode="&#xe944;" glyph-name="bxs-bookmark-alt" data-tags="bxs-bookmark-alt" d="M789.333 874.667h-512c-82.347 0-149.333-66.987-149.333-149.333v-704l298.667 149.333 298.667-149.333v384h213.333v320c0 82.347-66.987 149.333-149.333 149.333zM853.333 490.667h-128v234.667c0 35.285 28.715 64 64 64s64-28.715 64-64v-234.667z" />
<glyph unicode="&#xe945;" glyph-name="bxs-bookmark-alt-minus" data-tags="bxs-bookmark-alt-minus" d="M789.333 874.667h-512c-82.347 0-149.333-66.987-149.333-149.333v-704l298.667 149.333 298.667-149.333v384h213.333v320c0 82.347-66.987 149.333-149.333 149.333zM554.667 490.667h-256v85.333h256v-85.333zM853.333 490.667h-128v234.667c0 35.285 28.715 64 64 64s64-28.715 64-64v-234.667z" />
<glyph unicode="&#xe946;" glyph-name="bxs-bookmark-alt-plus" data-tags="bxs-bookmark-alt-plus" d="M789.333 874.667h-512c-82.347 0-149.333-66.987-149.333-149.333v-704l298.667 149.333 298.667-149.333v384h213.333v320c0 82.347-66.987 149.333-149.333 149.333zM554.667 490.667h-85.333v-85.333h-85.333v85.333h-85.333v85.333h85.333v85.333h85.333v-85.333h85.333v-85.333zM853.333 490.667h-128v234.667c0 35.285 28.715 64 64 64s64-28.715 64-64v-234.667z" />
<glyph unicode="&#xe947;" glyph-name="bxs-bookmark-heart" data-tags="bxs-bookmark-heart" d="M810.667 21.333v768c0 47.061-38.272 85.333-85.333 85.333h-426.667c-47.061 0-85.333-38.272-85.333-85.333v-768l298.667 199.083 298.667-199.083zM341.589 616.277c0 24.235 9.557 46.208 24.96 62.123 15.403 15.872 36.693 25.728 60.245 25.728 0 0 42.496 0.128 85.205-43.904 42.709 44.032 85.205 43.904 85.205 43.904 23.552 0 44.843-9.813 60.245-25.728s24.96-37.888 24.96-62.123-9.557-46.251-24.96-62.123l-145.451-157.483-145.451 157.483c-15.445 15.872-24.96 37.888-24.96 62.123z" />
<glyph unicode="&#xe948;" glyph-name="bxs-bookmark-minus" data-tags="bxs-bookmark-minus" d="M725.333 874.667h-426.667c-47.104 0-85.333-38.229-85.333-85.333v-768l298.667 206.848 298.667-206.848v768c0 47.104-38.229 85.333-85.333 85.333zM682.667 490.667h-341.333v85.333h341.333v-85.333z" />
<glyph unicode="&#xe949;" glyph-name="bxs-bookmark-plus" data-tags="bxs-bookmark-plus" d="M725.333 874.667h-426.667c-47.104 0-85.333-38.229-85.333-85.333v-768l298.667 206.848 298.667-206.848v768c0 47.104-38.229 85.333-85.333 85.333zM682.667 490.667h-128v-128h-85.333v128h-128v85.333h128v128h85.333v-128h128v-85.333z" />
<glyph unicode="&#xe94a;" glyph-name="bxs-bookmarks" data-tags="bxs-bookmarks" d="M725.291-21.333v682.667c0 47.061-38.272 85.333-85.333 85.333h-341.333c-47.061 0-85.333-38.272-85.333-85.333v-682.667l256 153.643 256-153.643zM664.96 832h60.331c47.061 0 85.333-38.272 85.333-85.333v-445.568l85.333-106.197v637.099c0 47.061-38.272 85.333-85.333 85.333h-341.333c-47.061 0-85.333-38.272-85.333-85.333h281.003z" />
<glyph unicode="&#xe94b;" glyph-name="bxs-bookmark-star" data-tags="bxs-bookmark-star" d="M810.667 33.152v756.181c0 47.104-38.229 85.333-85.333 85.333h-426.667c-47.104 0-85.333-38.229-85.333-85.333v-756.181l298.667 195.029 298.667-195.029zM341.333 618.667l113.792 14.208 56.875 113.792 56.875-113.792 113.792-14.208-94.848-80.597 37.973-132.736-113.792 75.861-113.792-75.861 37.973 132.736-94.848 80.597z" />
<glyph unicode="&#xe94c;" glyph-name="bxs-book-open" data-tags="bxs-book-open" d="M896 832h-298.667c-32.896 0-62.635-12.843-85.333-33.28-22.699 20.437-52.437 33.28-85.333 33.28h-298.667c-23.595 0-42.667-19.115-42.667-42.667v-640c0-23.552 19.072-42.667 42.667-42.667h245.675c22.443 0 44.459-9.088 60.331-25.003l47.829-47.829c0.384-0.384 0.896-0.512 1.28-0.896 3.669-3.413 7.765-6.4 12.544-8.363 0.043 0 0.043 0 0.085 0 5.163-2.133 10.667-3.243 16.256-3.243s11.093 1.109 16.256 3.243c0.043 0 0.043 0 0.085 0 4.779 1.963 8.875 4.992 12.544 8.363 0.384 0.384 0.896 0.512 1.28 0.896l47.829 47.829c15.872 15.915 37.888 25.003 60.331 25.003h245.675c23.595 0 42.667 19.115 42.667 42.667v640c0 23.552-19.072 42.667-42.667 42.667zM853.333 192h-203.008c-34.091 0-67.627-10.496-95.659-29.397v541.397c0 23.509 19.115 42.667 42.667 42.667h256v-554.667z" />
<glyph unicode="&#xe94d;" glyph-name="bxs-book-reader" data-tags="bxs-book-reader" d="M85.333 618.667v-491.904c0 0 197.163 7.339 426.667-105.429 229.504 112.768 426.667 105.429 426.667 105.429v491.904c0 0-232.704 0-426.667-105.429-193.963 105.429-426.667 105.429-426.667 105.429zM640 746.667c0-70.692-57.308-128-128-128s-128 57.308-128 128c0 70.692 57.308 128 128 128s128-57.308 128-128z" />
<glyph unicode="&#xe94e;" glyph-name="bxs-bot" data-tags="bxs-bot" d="M896 491.733v126.933c0 47.104-38.229 85.333-85.333 85.333h-256v55.979c13.013 11.691 21.333 28.501 21.333 47.36 0 35.328-28.672 64-64 64s-64-28.672-64-64c0-18.859 8.32-35.669 21.333-47.36v-55.979h-256c-47.104 0-85.333-38.229-85.333-85.333v-127.915c-1.664-0.128-3.072-0.213-3.072-0.213-22.357-1.579-39.595-20.181-39.595-42.539v-85.333c0-23.595 19.072-42.667 42.667-42.667v-213.333c0-47.104 38.229-85.333 85.333-85.333h597.333c47.104 0 85.333 38.229 85.333 85.333v213.333c23.595 0 42.667 19.072 42.667 42.667v82.688c0.469 6.528-0.512 13.227-3.072 19.413-8.619 20.821-27.093 25.813-39.595 26.965zM298.667 448c0 47.104 28.672 85.333 64 85.333s64-38.229 64-85.333-28.672-85.333-64-85.333-64 38.229-64 85.333zM682.581 192c-42.709 0.128-341.205 0-341.248 0v85.333c0 0 298.709 0.085 341.419 0l-0.171-85.333zM661.333 362.667c-35.328 0-64 38.229-64 85.333s28.672 85.333 64 85.333 64-38.229 64-85.333-28.672-85.333-64-85.333z" />
<glyph unicode="&#xe94f;" glyph-name="bxs-bowling-ball" data-tags="bxs-bowling-ball" d="M512 874.667c-235.264 0-426.667-191.403-426.667-426.667s191.403-426.667 426.667-426.667 426.667 191.403 426.667 426.667-191.403 426.667-426.667 426.667zM277.333 448c-35.328 0-64 28.672-64 64s28.672 64 64 64 64-28.672 64-64-28.672-64-64-64zM384 682.667c0 35.328 28.672 64 64 64s64-28.672 64-64-28.672-64-64-64-64 28.672-64 64zM490.667 405.333c-35.328 0-64 28.672-64 64s28.672 64 64 64 64-28.672 64-64-28.672-64-64-64z" />
<glyph unicode="&#xe950;" glyph-name="bxs-box" data-tags="bxs-box" d="M85.333 832h853.333v-170.667h-853.333zM810.667 618.667h-682.667v-469.333c0-47.104 38.229-85.333 85.333-85.333h597.333c47.104 0 85.333 38.229 85.333 85.333v469.333h-85.333zM682.667 362.667h-341.333v85.333h341.333v-85.333z" />
<glyph unicode="&#xe951;" glyph-name="bxs-brain" data-tags="bxs-brain" d="M140.757 209.237c18.432-56.832 74.453-93.099 134.229-93.099h2.347c10.923-54.016 58.795-94.805 116.181-94.805 19.499 0 37.717 4.907 53.845 13.355 13.781 7.253 21.973 22.059 21.973 37.632v758.528c0 20.096-13.824 37.973-33.493 41.941-19.499 3.968-41.216 1.877-63.104-8.576-31.744-15.189-50.347-49.109-50.347-84.395v-2.347c-7.595 1.451-15.701 2.347-23.723 2.347-65.408 0-118.485-53.077-118.485-118.485 0-27.52 9.472-53.077 25.131-73.003-67.797-10.453-119.979-69.205-119.979-140.331 0-50.261 26.069-94.336 65.408-119.979-18.347-32.896-24.363-74.496-9.984-118.784zM818.688 588.331c15.701 19.925 25.131 45.483 25.131 73.003 0 65.408-53.077 118.485-118.485 118.485-8.021 0-16.128-0.896-23.723-2.347v2.347c0 35.243-18.645 69.205-50.389 84.395-21.845 10.453-43.563 12.544-63.061 8.576-19.669-4.011-33.493-21.888-33.493-41.941v-758.485c0-15.573 8.192-30.379 22.016-37.632 16.128-8.491 34.304-13.397 53.803-13.397 57.387 0 105.259 40.789 116.181 94.848h2.389c59.733 0 115.797 36.267 134.229 93.099 14.379 44.288 8.363 85.888-9.984 118.784 39.296 25.6 65.365 69.675 65.365 119.936 0 71.125-52.181 129.877-119.979 140.331z" />
<glyph unicode="&#xe952;" glyph-name="bxs-briefcase" data-tags="bxs-briefcase" d="M853.333 704h-128v85.333c0 47.061-38.272 85.333-85.333 85.333h-256c-47.061 0-85.333-38.272-85.333-85.333v-85.333h-128c-47.061 0-85.333-38.272-85.333-85.333v-128h853.333v128c0 47.061-38.272 85.333-85.333 85.333zM384 789.333h256v-85.333h-256v85.333zM597.333 362.667h-170.667v85.333h-341.333v-298.667c0-47.061 38.272-85.333 85.333-85.333h682.667c47.061 0 85.333 38.272 85.333 85.333v298.667h-341.333v-85.333z" />
<glyph unicode="&#xe953;" glyph-name="bxs-briefcase-alt" data-tags="bxs-briefcase-alt" d="M853.333 704h-128v85.333c0 47.061-38.272 85.333-85.333 85.333h-256c-47.061 0-85.333-38.272-85.333-85.333v-85.333h-128c-47.061 0-85.333-38.272-85.333-85.333v-469.333c0-47.061 38.272-85.333 85.333-85.333h682.667c47.061 0 85.333 38.272 85.333 85.333v469.333c0 47.061-38.272 85.333-85.333 85.333zM256 618.667h85.333v-469.333h-85.333v469.333zM768 149.333h-85.333v469.333h85.333v-469.333zM640 789.333v-85.333h-256v85.333h256z" />
<glyph unicode="&#xe954;" glyph-name="bxs-briefcase-alt-2" data-tags="bxs-briefcase-alt-2" d="M853.333 704h-128v85.333c0 47.061-38.272 85.333-85.333 85.333h-256c-47.061 0-85.333-38.272-85.333-85.333v-85.333h-128c-47.061 0-85.333-38.272-85.333-85.333v-170.667h213.333v85.333h85.333v-85.333h256v85.333h85.333v-85.333h213.333v170.667c0 47.061-38.272 85.333-85.333 85.333zM384 789.333h256v-85.333h-256v85.333zM725.333 320h-85.333v85.333h-256v-85.333h-85.333v85.333h-213.333v-256c0-47.061 38.272-85.333 85.333-85.333h682.667c47.061 0 85.333 38.272 85.333 85.333v256h-213.333v-85.333z" />
<glyph unicode="&#xe955;" glyph-name="bxs-brightness" data-tags="bxs-brightness" d="M919.296 463.104l-108.629 108.587v153.643c0 11.776-9.557 21.333-21.333 21.333h-153.643l-108.629 108.629c-8.32 8.32-21.845 8.32-30.165 0l-108.587-108.629h-153.643c-11.776 0-21.333-9.557-21.333-21.333v-153.643l-108.629-108.629c-8.32-8.32-8.32-21.845 0-30.165l108.629-108.587v-153.643c0-11.776 9.557-21.333 21.333-21.333h153.643l108.629-108.629c8.32-8.32 21.845-8.32 30.165 0l108.587 108.629h153.643c11.776 0 21.333 9.557 21.333 21.333v153.643l108.629 108.629c8.32 8.32 8.32 21.803 0 30.165zM512 277.333c-94.251 0-170.667 76.416-170.667 170.667s76.416 170.667 170.667 170.667 170.667-76.416 170.667-170.667-76.416-170.667-170.667-170.667z" />
<glyph unicode="&#xe956;" glyph-name="bxs-brightness-half" data-tags="bxs-brightness-half" d="M919.296 463.104l-108.629 108.587v153.643c0 11.776-9.557 21.333-21.333 21.333h-153.643l-108.629 108.629c-8.32 8.32-21.845 8.32-30.165 0l-108.587-108.629h-153.643c-11.776 0-21.333-9.557-21.333-21.333v-153.643l-108.629-108.629c-8.32-8.32-8.32-21.845 0-30.165l108.629-108.587v-153.643c0-11.776 9.557-21.333 21.333-21.333h153.643l108.629-108.629c8.32-8.32 21.845-8.32 30.165 0l108.587 108.629h153.643c11.776 0 21.333 9.557 21.333 21.333v153.643l108.629 108.629c8.32 8.32 8.32 21.803 0 30.165zM512 618.667c94.251 0 170.667-76.416 170.667-170.667s-76.416-170.667-170.667-170.667z" />
<glyph unicode="&#xe957;" glyph-name="bxs-brush" data-tags="bxs-brush" d="M904.832 478.805l-362.027 362.027c-16.683 16.683-43.648 16.683-60.331 0l-280.405-280.32c-24.149-24.192-37.461-56.363-37.461-90.539 0-34.219 13.355-66.389 37.504-90.496l30.165-30.165-90.539-90.539c-24.448-24.448-37.717-56.789-37.248-89.941-0.469-37.845 16.085-73.771 45.355-98.475 22.187-18.731 50.688-29.056 80.469-29.056 35.584 0 70.571 14.549 96 39.979l86.997 86.997 30.165-30.123c48.341-48.341 132.565-48.384 180.992-0.043l280.362 280.363c16.683 16.64 16.683 43.648 0 60.331zM594.347 228.565l-30.208-30.123c-16.043-16.171-44.117-16.171-60.331 0l-60.331 60.288c-16.683 16.683-43.648 16.683-60.331 0l-117.163-117.12c-9.557-9.557-22.528-15.019-35.669-15.019-6.784 0-16.683 1.536-25.387 8.875-9.856 8.32-15.232 19.84-15.104 33.365-0.171 11.008 4.224 21.504 12.245 29.525l120.704 120.704c16.683 16.683 16.683 43.648 0 60.331l-60.331 60.373c-8.064 8.021-12.501 18.688-12.501 30.123s4.437 22.144 12.501 30.208l30.165 30.165 301.739-301.696z" />
<glyph unicode="&#xe958;" glyph-name="bxs-brush-alt" data-tags="bxs-brush-alt" d="M768 618.624l-128 0.043v128.043c0 34.645-13.483 66.816-37.291 89.941-26.581 27.179-63.189 40.96-101.973 37.504-65.451-5.632-116.736-63.829-116.736-132.48v-123.008h-128c-47.061 0-85.333-38.272-85.333-85.333v-469.333c0-23.595 19.072-42.667 42.667-42.667h597.333c23.595 0 42.667 19.072 42.667 42.667v469.291c0 47.061-38.272 85.333-85.333 85.333zM256 448v85.333h213.333v208.341c0 24.32 17.365 45.653 42.752 47.659 11.349 0 21.845-4.395 30.379-13.099 7.851-7.637 12.203-18.133 12.203-29.525v-213.376h42.453c0.085 0 0.128-0.043 0.213-0.043h170.667v-85.291h-512z" />
<glyph unicode="&#xe959;" glyph-name="bxs-bug" data-tags="bxs-bug" d="M289.579 661.333h444.843c-4.608 6.741-8.576 14.123-13.568 20.523l120.021 119.979-60.331 60.331-121.429-121.429c-9.941 7.083-20.181 13.696-30.848 19.371-73.515 38.827-158.976 38.869-232.533 0-10.667-5.632-20.821-12.245-30.805-19.328l-121.429 121.387-60.331-60.331 120.021-119.979c-5.035-6.443-8.96-13.781-13.611-20.523zM245.589 576h-160.256v-85.333h98.432c-2.773-21.12-4.565-42.539-4.565-64 0-21.632 1.792-43.221 4.565-64.469h-98.432v-85.333h117.461c0.555-1.664 0.896-3.413 1.451-5.035 8.021-23.68 17.963-46.635 29.653-68.267 1.877-3.456 4.053-6.613 6.016-9.984l-99.413-99.413 60.331-60.331 90.027 90.069c10.027-10.837 20.395-21.248 31.403-30.549 17.835-15.104 36.992-28.032 56.832-38.528 20.437-10.795 41.899-19.157 63.829-24.747 8.704-2.219 17.536-3.627 26.368-5.035v252.288h85.333v-252.331c8.832 1.365 17.664 2.773 26.368 5.035 21.931 5.589 43.392 13.952 63.829 24.747 19.84 10.496 38.997 23.467 56.875 38.571 11.008 9.301 21.333 19.712 31.317 30.549l90.069-90.069 60.331 60.331-99.413 99.413c2.005 3.413 4.181 6.613 6.059 10.069 11.648 21.547 21.632 44.501 29.611 68.224 0.555 1.664 0.896 3.371 1.451 5.035h117.547v85.333h-98.475c2.773 21.291 4.565 42.837 4.565 64.469 0 21.461-1.792 42.88-4.523 64h98.432v85.291h-693.077z" />
<glyph unicode="&#xe95a;" glyph-name="bxs-bug-alt" data-tags="bxs-bug-alt" d="M768 729.003l72.832 72.832-60.331 60.331-66.688-66.645c-53.205 48.939-123.989 79.147-201.813 79.147s-148.608-30.208-201.813-79.147l-66.688 66.645-60.331-60.331 72.832-72.832c-26.923-44.8-42.667-97.024-42.667-153.003h-85.333v-85.333h85.333v-85.333h-85.333v-85.333h85.333c0-164.693 134.016-298.667 298.667-298.667s298.667 133.973 298.667 298.667h85.333v85.333h-85.333v85.333h85.333v85.333h-85.333c0 55.979-15.744 108.203-42.667 153.003zM640 320h-256v85.333h256v-85.333zM640 490.667h-256v85.333h256v-85.333z" />
<glyph unicode="&#xe95b;" glyph-name="bxs-building" data-tags="bxs-building" d="M725.333 874.667h-426.667c-47.104 0-85.333-38.229-85.333-85.333v-725.333c0-23.552 19.072-42.667 42.667-42.667h512c23.595 0 42.667 19.115 42.667 42.667v725.333c0 47.104-38.229 85.333-85.333 85.333zM469.333 277.333h-128v85.333h128v-85.333zM469.333 448h-128v85.333h128v-85.333zM469.333 618.667h-128v85.333h128v-85.333zM682.667 277.333h-128v85.333h128v-85.333zM682.667 448h-128v85.333h128v-85.333zM682.667 618.667h-128v85.333h128v-85.333z" />
<glyph unicode="&#xe95c;" glyph-name="bxs-building-house" data-tags="bxs-building-house" d="M810.283 874.667h-425.856c-47.403 0-85.76-38.357-85.76-85.76v-240.512l-200.619-198.059c-12.331-12.16-16.085-30.592-9.515-46.592 6.571-15.957 22.187-26.411 39.467-26.411v-213.333c0-23.595 19.072-42.667 42.667-42.667h682.667c23.595 0 42.667 19.072 42.667 42.667v724.949c0 47.36-38.315 85.717-85.717 85.717zM466.005 315.264v-208.597h-252.672v237.568l127.445 125.824 125.227-128.128v-26.667zM554.667 576h-85.333v85.333h85.333v-85.333zM725.333 234.667h-85.333v85.333h85.333v-85.333zM725.333 405.333h-85.333v85.333h85.333v-85.333zM725.333 576h-85.333v85.333h85.333v-85.333zM298.667 320h85.333v-85.333h-85.333z" />
<glyph unicode="&#xe95d;" glyph-name="bxs-buildings" data-tags="bxs-buildings" d="M298.667 362.624h85.333v-85.333h-85.333zM810.667 874.667h-341.333c-47.104 0-85.333-38.229-85.333-85.333v-256h-170.667c-47.061 0-85.333-38.272-85.333-85.333v-384c0-23.552 19.072-42.667 42.667-42.667h682.667c23.595 0 42.667 19.115 42.667 42.667v725.333c0 47.104-38.229 85.333-85.333 85.333zM213.333 106.667v341.333h256v-341.333h-256zM597.333 618.667h-85.333v85.333h85.333v-85.333zM768 277.333h-85.333v85.333h85.333v-85.333zM768 448h-85.333v85.333h85.333v-85.333zM768 618.667h-85.333v85.333h85.333v-85.333z" />
<glyph unicode="&#xe95e;" glyph-name="bxs-bulb" data-tags="bxs-bulb" d="M384 106.667h256v-85.333h-256zM721.323 374.955c43.947 51.456 89.344 104.661 89.344 201.045 0 164.651-134.016 298.667-298.667 298.667s-298.667-134.016-298.667-298.667c0-97.493 45.525-150.528 89.643-201.813 15.275-17.835 31.104-36.309 46.251-57.557 6.144-8.789 16.213-42.496 25.216-81.963h-33.792v-85.333h342.699v85.333h-33.707c9.088 39.552 19.2 73.344 25.301 82.133 15.019 21.461 30.976 40.107 46.379 58.155z" />
<glyph unicode="&#xe95f;" glyph-name="bxs-bullseye" data-tags="bxs-bullseye" d="M512 874.667c-235.264 0-426.667-191.403-426.667-426.667s191.403-426.667 426.667-426.667 426.667 191.403 426.667 426.667-191.403 426.667-426.667 426.667zM512 149.333c-164.651 0-298.667 133.973-298.667 298.667s134.016 298.667 298.667 298.667 298.667-133.973 298.667-298.667-134.016-298.667-298.667-298.667zM512 661.333c-117.632 0-213.333-95.701-213.333-213.333s95.701-213.333 213.333-213.333 213.333 95.701 213.333 213.333-95.701 213.333-213.333 213.333zM512 362.667c-47.061 0-85.333 38.272-85.333 85.333s38.272 85.333 85.333 85.333 85.333-38.272 85.333-85.333-38.272-85.333-85.333-85.333z" />
<glyph unicode="&#xe960;" glyph-name="bxs-buoy" data-tags="bxs-buoy" d="M512 874.667c-235.264 0-426.667-191.403-426.667-426.667s191.403-426.667 426.667-426.667 426.667 191.403 426.667 426.667-191.403 426.667-426.667 426.667zM842.069 533.333h-134.827c-21.504 49.024-60.885 88.405-109.909 109.909v134.869c119.637-30.976 213.803-125.141 244.736-244.779zM512 320c-70.571 0-128 57.429-128 128s57.429 128 128 128 128-57.429 128-128-57.429-128-128-128zM426.667 778.112v-134.869c-49.024-21.504-88.405-60.885-109.909-109.909h-134.827c30.933 119.637 125.099 213.803 244.736 244.779zM181.931 362.667h134.827c21.504-49.024 60.885-88.405 109.909-109.909v-134.869c-119.637 30.976-213.803 125.141-244.736 244.779zM597.333 117.888v134.869c49.024 21.504 88.405 60.885 109.909 109.909h134.827c-30.933-119.637-125.099-213.803-244.736-244.779z" />
<glyph unicode="&#xe961;" glyph-name="bxs-bus" data-tags="bxs-bus" d="M896 703.104c0.128 6.229-0.299 62.507-55.467 116.693-54.315 53.333-109.099 54.869-115.2 54.869h-426.837c-10.197 0-63.701-2.688-115.541-55.552-53.419-54.443-54.955-109.099-54.955-115.115v-128h-42.667v-128h42.667v-256c0-31.317 17.323-58.581 42.667-73.429v-54.571c0-23.595 19.072-42.667 42.667-42.667h42.667c23.595 0 42.667 19.072 42.667 42.667v42.667h426.667v-42.667c0-23.595 19.072-42.667 42.667-42.667h42.667c23.595 0 42.667 19.072 42.667 42.667v54.485c25.429 14.805 42.667 41.984 42.667 73.515v256h42.667v128h-42.667v127.104zM384 789.333h256v-85.333h-256v85.333zM277.333 192c-35.328 0-64 28.672-64 64s28.672 64 64 64 64-28.672 64-64-28.672-64-64-64zM469.333 405.333h-256v213.333h256v-213.333zM746.667 192c-35.328 0-64 28.672-64 64s28.672 64 64 64 64-28.672 64-64-28.672-64-64-64zM810.667 405.333h-256v213.333h256v-213.333z" />
<glyph unicode="&#xe962;" glyph-name="bxs-business" data-tags="bxs-business" d="M896 661.333h-256c-23.595 0-42.667-19.072-42.667-42.667v-128h-85.333v298.667c0 23.595-19.072 42.667-42.667 42.667h-341.333c-23.595 0-42.667-19.072-42.667-42.667v-682.667c0-23.595 19.072-42.667 42.667-42.667h768c23.595 0 42.667 19.072 42.667 42.667v512c0 23.595-19.072 42.667-42.667 42.667zM341.333 704h85.333v-85.333h-85.333v85.333zM256 277.333h-85.333v85.333h85.333v-85.333zM256 448h-85.333v85.333h85.333v-85.333zM256 618.667h-85.333v85.333h85.333v-85.333zM426.667 277.333h-85.333v85.333h85.333v-85.333zM426.667 448h-85.333v85.333h85.333v-85.333zM810.667 277.333h-85.333v85.333h85.333v-85.333zM810.667 448h-85.333v85.333h85.333v-85.333z" />
<glyph unicode="&#xe963;" glyph-name="bxs-bus-school" data-tags="bxs-bus-school" d="M896 465.195v25.472h42.667v128h-42.667v85.333c0 94.123-76.544 170.667-170.667 170.667h-426.667c-94.123 0-170.667-76.544-170.667-170.667v-85.333h-42.667v-128h42.667v-25.472c-27.605-31.232-42.667-70.997-42.624-112.981l0.171-160.341c0.043-31.275 17.237-58.411 42.453-73.216v-54.656c0-23.552 19.072-42.667 42.667-42.667h42.667c23.595 0 42.667 19.115 42.667 42.667v42.667h512v-42.667c0-23.552 19.072-42.667 42.667-42.667h42.667c23.595 0 42.667 19.115 42.667 42.667v54.357c6.4 3.712 12.587 7.979 17.963 13.355 16.085 16.128 24.96 37.589 24.917 60.373l-0.171 160.384c-0.043 41.984-15.147 81.664-42.709 112.725zM341.333 789.333h341.333v-85.333h-341.333v85.333zM277.333 234.667c-35.328 0-64 28.672-64 64s28.672 64 64 64 64-28.672 64-64-28.672-64-64-64zM469.333 448h-256v170.667h256v-170.667zM746.667 234.667c-35.328 0-64 28.672-64 64s28.672 64 64 64 64-28.672 64-64-28.672-64-64-64zM810.667 448h-256v170.667h256v-170.667z" />
<glyph unicode="&#xe964;" glyph-name="bxs-cabinet" data-tags="bxs-cabinet" d="M896 789.333c0 47.061-38.272 85.333-85.333 85.333h-597.333c-47.061 0-85.333-38.272-85.333-85.333v-298.667h768v298.667zM682.667 618.667h-341.333v128h85.333v-42.667h170.667v42.667h85.333v-128zM213.333 21.333h597.333c47.061 0 85.333 38.272 85.333 85.333v298.667h-768v-298.667c0-47.061 38.272-85.333 85.333-85.333zM341.333 277.333h85.333v-42.667h170.667v42.667h85.333v-128h-341.333v128z" />
<glyph unicode="&#xe965;" glyph-name="bxs-cake" data-tags="bxs-cake" d="M725.205 320c-68.309 0-104.363 28.843-133.333 52.011-24.192 19.328-41.685 33.323-80.128 33.323-38.315 0-54.912-13.269-79.957-33.28-28.971-23.211-65.024-52.053-133.333-52.053s-104.277 28.843-133.248 52.053c-25.045 20.011-41.6 33.28-79.872 33.28v-213.333c0-47.061 38.272-85.333 85.333-85.333h682.667c47.061 0 85.333 38.272 85.333 85.333v213.333c-38.357 0-54.955-13.269-80.043-33.323-29.013-23.168-65.067-52.011-133.419-52.011zM810.667 746.667h-256v128h-85.333v-128h-256c-70.571 0-128-57.429-128-128v-128c68.267 0 104.235-28.843 133.205-52.053 25.045-20.011 41.6-33.28 79.915-33.28 38.357 0 54.912 13.269 80 33.323 28.971 23.168 65.024 52.011 133.291 52.011 68.352 0 104.405-28.843 133.419-52.011 25.088-20.053 41.685-33.323 80.043-33.323 38.4 0 55.936 13.995 80.128 33.323 28.971 23.168 65.024 52.011 133.333 52.011v128c0 70.571-57.429 128-128 128z" />
<glyph unicode="&#xe966;" glyph-name="bxs-calculator" data-tags="bxs-calculator" d="M256 21.333h512c47.104 0 85.333 38.229 85.333 85.333v682.667c0 47.104-38.229 85.333-85.333 85.333h-512c-47.104 0-85.333-38.229-85.333-85.333v-682.667c0-47.104 38.229-85.333 85.333-85.333zM384 149.333h-85.333v85.333h85.333v-85.333zM384 320h-85.333v85.333h85.333v-85.333zM384 490.667h-85.333v85.333h85.333v-85.333zM554.667 149.333h-85.333v85.333h85.333v-85.333zM554.667 320h-85.333v85.333h85.333v-85.333zM554.667 490.667h-85.333v85.333h85.333v-85.333zM725.333 149.333h-85.333v256h85.333v-256zM725.333 490.667h-85.333v85.333h85.333v-85.333zM256 789.333h512v-128h-512v128z" />
<glyph unicode="&#xe967;" glyph-name="bxs-calendar" data-tags="bxs-calendar" d="M896 106.667v597.333c0 47.061-38.272 85.333-85.333 85.333h-85.333v85.333h-85.333v-85.333h-256v85.333h-85.333v-85.333h-85.333c-47.061 0-85.333-38.272-85.333-85.333v-597.333c0-47.061 38.272-85.333 85.333-85.333h597.333c47.061 0 85.333 38.272 85.333 85.333zM384 192h-85.333v85.333h85.333v-85.333zM384 362.667h-85.333v85.333h85.333v-85.333zM554.667 192h-85.333v85.333h85.333v-85.333zM554.667 362.667h-85.333v85.333h85.333v-85.333zM725.333 192h-85.333v85.333h85.333v-85.333zM725.333 362.667h-85.333v85.333h85.333v-85.333zM810.667 576h-597.333v85.333h597.333v-85.333z" />
<glyph unicode="&#xe968;" glyph-name="bxs-calendar-alt" data-tags="bxs-calendar-alt" d="M213.333 21.333h597.333c47.061 0 85.333 38.272 85.333 85.333v597.333c0 47.061-38.272 85.333-85.333 85.333h-85.333v85.333h-85.333v-85.333h-256v85.333h-85.333v-85.333h-85.333c-47.061 0-85.333-38.272-85.333-85.333v-597.333c0-47.061 38.272-85.333 85.333-85.333zM213.333 661.333h597.333v-85.333h-597.333v85.333z" />
<glyph unicode="&#xe969;" glyph-name="bxs-calendar-check" data-tags="bxs-calendar-check" d="M213.333 21.333h597.333c47.061 0 85.333 38.272 85.333 85.333v597.333c0 47.061-38.272 85.333-85.333 85.333h-85.333v85.333h-85.333v-85.333h-256v85.333h-85.333v-85.333h-85.333c-47.061 0-85.333-38.272-85.333-85.333v-597.333c0-47.061 38.272-85.333 85.333-85.333zM469.333 174.336l-158.165 158.165 60.331 60.331 97.835-97.835 183.168 183.168 60.331-60.331-243.499-243.499zM213.333 661.333h597.333v-85.333h-597.333v85.333z" />
<glyph unicode="&#xe96a;" glyph-name="bxs-calendar-edit" data-tags="bxs-calendar-edit" d="M213.333 21.333h597.333c47.061 0 85.333 38.272 85.333 85.333v597.333c0 47.061-38.272 85.333-85.333 85.333h-85.333v85.333h-85.333v-85.333h-256v85.333h-85.333v-85.333h-85.333c-47.061 0-85.333-38.272-85.333-85.333v-597.333c0-47.061 38.272-85.333 85.333-85.333zM418.091 107.221h-76.757v76.757l212.352 212.053 76.757-76.757-212.352-212.053zM666.581 355.413l-76.757 76.757 58.539 58.496 76.757-76.757-58.539-58.496zM213.333 661.333h597.333v-85.333h-597.333v85.333z" />
<glyph unicode="&#xe96b;" glyph-name="bxs-calendar-event" data-tags="bxs-calendar-event" d="M810.667 789.333h-85.333v85.333h-85.333v-85.333h-256v85.333h-85.333v-85.333h-85.333c-47.061 0-85.333-38.272-85.333-85.333v-597.333c0-47.061 38.272-85.333 85.333-85.333h597.333c47.061 0 85.333 38.272 85.333 85.333v597.333c0 47.061-38.272 85.333-85.333 85.333zM768 149.333h-256v256h256v-256zM810.667 576h-597.333v85.333h597.333v-85.333z" />
<glyph unicode="&#xe96c;" glyph-name="bxs-calendar-exclamation" data-tags="bxs-calendar-exclamation" d="M810.667 789.333h-85.333v85.333h-85.333v-85.333h-256v85.333h-85.333v-85.333h-85.333c-47.061 0-85.333-38.272-85.333-85.333v-597.333c0-47.061 38.272-85.333 85.333-85.333h597.333c47.061 0 85.333 38.272 85.333 85.333v597.333c0 47.061-38.272 85.333-85.333 85.333zM554.667 106.667h-85.333v85.333h85.333v-85.333zM554.667 277.333h-85.333v213.333h85.333v-213.333zM810.667 576h-597.333v85.333h597.333v-85.333z" />
<glyph unicode="&#xe96d;" glyph-name="bxs-calendar-heart" data-tags="bxs-calendar-heart" d="M810.667 789.333h-85.333v85.333h-85.333v-85.333h-256v85.333h-85.333v-85.333h-85.333c-47.061 0-85.333-38.272-85.333-85.333v-597.333c0-47.061 38.272-85.333 85.333-85.333h597.333c47.061 0 85.333 38.272 85.333 85.333v597.333c0 47.061-38.272 85.333-85.333 85.333zM655.019 289.664l-142.933-140.331-142.891 140.331c-37.163 36.437-37.163 94.293 0 130.944 37.333 36.48 96.256 36.48 133.333 0l9.557-9.344 9.557 9.344c37.163 36.48 96.043 36.48 133.376 0 37.163-36.651 37.163-94.464 0-130.944zM810.667 576h-597.333v85.333h597.333v-85.333z" />
<glyph unicode="&#xe96e;" glyph-name="bxs-calendar-minus" data-tags="bxs-calendar-minus" d="M213.333 21.333h597.333c47.061 0 85.333 38.272 85.333 85.333v597.333c0 47.061-38.272 85.333-85.333 85.333h-85.333v85.333h-85.333v-85.333h-256v85.333h-85.333v-85.333h-85.333c-47.061 0-85.333-38.272-85.333-85.333v-597.333c0-47.061 38.272-85.333 85.333-85.333zM682.667 277.333h-341.333v85.333h341.333v-85.333zM213.333 661.333h597.333v-85.333h-597.333v85.333z" />
<glyph unicode="&#xe96f;" glyph-name="bxs-calendar-plus" data-tags="bxs-calendar-plus" d="M213.333 21.333h597.333c47.061 0 85.333 38.272 85.333 85.333v597.333c0 47.061-38.272 85.333-85.333 85.333h-85.333v85.333h-85.333v-85.333h-256v85.333h-85.333v-85.333h-85.333c-47.061 0-85.333-38.272-85.333-85.333v-597.333c0-47.061 38.272-85.333 85.333-85.333zM682.667 277.333h-128v-128h-85.333v128h-128v85.333h128v128h85.333v-128h128v-85.333zM213.333 661.333h597.333v-85.333h-597.333v85.333z" />
<glyph unicode="&#xe970;" glyph-name="bxs-calendar-star" data-tags="bxs-calendar-star" d="M810.667 789.333h-85.333v85.333h-85.333v-85.333h-256v85.333h-85.333v-85.333h-85.333c-47.061 0-85.333-38.272-85.333-85.333v-597.333c0-47.061 38.272-85.333 85.333-85.333h597.333c47.061 0 85.333 38.272 85.333 85.333v597.333c0 47.061-38.272 85.333-85.333 85.333zM614.912 149.333l-104.491 54.955-104.491-54.955 19.968 116.395-84.565 82.347 116.821 16.981 52.267 105.813 52.267-105.813 116.821-16.981-84.523-82.389 19.925-116.352zM810.667 576h-597.333v85.333h597.333v-85.333z" />
<glyph unicode="&#xe971;" glyph-name="bxs-calendar-week" data-tags="bxs-calendar-week" d="M810.667 789.333h-85.333v85.333h-85.333v-85.333h-256v85.333h-85.333v-85.333h-85.333c-47.061 0-85.333-38.272-85.333-85.333v-597.333c0-47.061 38.272-85.333 85.333-85.333h597.333c47.061 0 85.333 38.272 85.333 85.333v597.333c0 47.061-38.272 85.333-85.333 85.333zM725.333 448v-85.333h-426.667v128h426.667v-42.667zM810.667 576h-597.333v85.333h597.333v-85.333z" />
<glyph unicode="&#xe972;" glyph-name="bxs-calendar-x" data-tags="bxs-calendar-x" d="M213.333 21.333h597.333c47.061 0 85.333 38.272 85.333 85.333v597.333c0 47.061-38.272 85.333-85.333 85.333h-85.333v85.333h-85.333v-85.333h-256v85.333h-85.333v-85.333h-85.333c-47.061 0-85.333-38.272-85.333-85.333v-597.333c0-47.061 38.272-85.333 85.333-85.333zM670.165 222.165l-60.331-60.331-97.835 97.835-97.835-97.835-60.331 60.331 97.835 97.835-97.835 97.835 60.331 60.331 97.835-97.835 97.835 97.835 60.331-60.331-97.835-97.835 97.835-97.835zM213.333 661.333h597.333v-85.333h-597.333v85.333z" />
<glyph unicode="&#xe973;" glyph-name="bxs-camera" data-tags="bxs-camera" d="M512 576c-69.376 0-128-58.624-128-128s58.624-128 128-128 128 58.624 128 128-58.624 128-128 128zM853.333 746.667h-110.336l-115.499 115.499c-7.979 8.021-18.816 12.501-30.165 12.501h-170.667c-11.349 0-22.187-4.48-30.165-12.501l-115.499-115.499h-110.336c-47.061 0-85.333-38.272-85.333-85.333v-469.333c0-47.061 38.272-85.333 85.333-85.333h682.667c47.061 0 85.333 38.272 85.333 85.333v469.333c0 47.061-38.272 85.333-85.333 85.333zM512 234.667c-115.627 0-213.333 97.707-213.333 213.333s97.707 213.333 213.333 213.333 213.333-97.707 213.333-213.333c0-115.627-97.707-213.333-213.333-213.333z" />
<glyph unicode="&#xe974;" glyph-name="bxs-camera-home" data-tags="bxs-camera-home" d="M640 533.333c0-70.692-57.308-128-128-128s-128 57.308-128 128c0 70.692 57.308 128 128 128s128-57.308 128-128zM773.333 874.667h-522.667c-44.117 0-80-35.883-80-80v-522.667c0-44.117 35.883-80 80-80h218.667v-85.333h-170.667v-85.333h426.667v85.333h-170.667v85.333h218.667c44.117 0 80 35.883 80 80v522.667c0 44.117-35.883 80-80 80zM512 320c-117.632 0-213.333 95.701-213.333 213.333s95.701 213.333 213.333 213.333 213.333-95.701 213.333-213.333-95.701-213.333-213.333-213.333z" />
<glyph unicode="&#xe975;" glyph-name="bxs-camera-movie" data-tags="bxs-camera-movie" d="M768 490.667c0 40.917-29.013 75.136-67.456 83.371 15.36 25.643 24.789 55.296 24.789 87.296 0 94.123-76.544 170.667-170.667 170.667-64.683 0-120.405-36.565-149.333-89.771-28.928 53.205-84.651 89.771-149.333 89.771-94.123 0-170.667-76.544-170.667-170.667 0-38.485 13.312-73.643 34.859-102.229-21.035-15.573-34.859-40.32-34.859-68.437v-341.333c0-47.061 38.272-85.333 85.333-85.333h512c47.061 0 85.333 38.272 85.333 85.333v112.512l170.667-85.333v298.667l-170.667-85.333v100.821zM554.667 746.667c47.061 0 85.333-38.272 85.333-85.333s-38.272-85.333-85.333-85.333c-47.061 0-85.333 38.272-85.333 85.333s38.272 85.333 85.333 85.333zM256 746.667c47.061 0 85.333-38.272 85.333-85.333s-38.272-85.333-85.333-85.333-85.333 38.272-85.333 85.333 38.272 85.333 85.333 85.333z" />
<glyph unicode="&#xe976;" glyph-name="bxs-camera-off" data-tags="bxs-camera-off" d="M170.667 106.667h506.837l-131.541 131.541c-11.136-1.877-22.4-3.541-33.963-3.541-115.627 0-213.333 97.707-213.333 213.333 0 11.563 1.664 22.827 3.541 33.963l-210.731 210.731c-3.84-9.728-6.144-20.267-6.144-31.36v-469.333c0-47.061 38.272-85.333 85.333-85.333zM853.333 746.667h-110.336l-115.499 115.499c-7.979 8.021-18.816 12.501-30.165 12.501h-170.667c-11.349 0-22.187-4.48-30.165-12.501l-115.499-115.499h-7.339l-115.499 115.499-60.331-60.331 768-768 60.331 60.331-26.709 26.709c23.467 15.104 39.211 41.173 39.211 71.125v469.333c0 47.061-38.272 85.333-85.333 85.333zM626.688 393.643c8.235 16.64 13.312 34.901 13.312 54.357 0 69.376-58.624 128-128 128-19.456 0-37.717-5.12-54.357-13.312l-62.293 62.293c33.749 22.784 73.899 36.352 116.651 36.352 115.627 0 213.333-97.707 213.333-213.333 0-42.752-13.568-82.901-36.352-116.651l-62.293 62.293z" />
<glyph unicode="&#xe977;" glyph-name="bxs-camera-plus" data-tags="bxs-camera-plus" d="M853.333 746.667h-110.336l-115.499 115.499c-7.979 8.021-18.816 12.501-30.165 12.501h-170.667c-11.349 0-22.187-4.48-30.165-12.501l-115.499-115.499h-110.336c-47.061 0-85.333-38.272-85.333-85.333v-469.333c0-47.061 38.272-85.333 85.333-85.333h682.667c47.061 0 85.333 38.272 85.333 85.333v469.333c0 47.061-38.272 85.333-85.333 85.333zM512 234.667c-115.627 0-213.333 97.707-213.333 213.333 0 115.669 97.707 213.333 213.333 213.333s213.333-97.664 213.333-213.333c0-115.627-97.707-213.333-213.333-213.333zM554.667 576h-85.333v-85.333h-85.333v-85.333h85.333v-85.333h85.333v85.333h85.333v85.333h-85.333z" />
<glyph unicode="&#xe978;" glyph-name="bxs-capsule" data-tags="bxs-capsule" d="M359.851 82.517c56.96 0 110.549 22.187 150.827 62.464l304.384 304.341c83.157 83.2 83.115 218.581-0.043 301.739-40.32 40.277-93.867 62.421-150.869 62.421-56.96 0-110.507-22.187-150.784-62.464l-304.384-304.341c-83.115-83.157-83.157-218.539-0.043-301.739 40.32-40.277 93.909-62.421 150.912-62.421zM573.653 690.688c24.149 24.149 56.277 37.461 90.453 37.461 34.219 0 66.389-13.312 90.539-37.461 49.92-49.877 49.92-131.115 0.043-181.035l-123.435-123.392-180.992 181.077 123.392 123.349z" />
<glyph unicode="&#xe979;" glyph-name="bxs-captions" data-tags="bxs-captions" d="M853.333 789.333h-682.667c-47.061 0-85.333-38.272-85.333-85.333v-512c0-47.061 38.272-85.333 85.333-85.333h682.667c47.061 0 85.333 38.272 85.333 85.333v512c0 47.061-38.272 85.333-85.333 85.333zM469.333 533.333h-128v-170.667h128v-85.333h-128c-47.061 0-85.333 38.272-85.333 85.333v170.667c0 47.061 38.272 85.333 85.333 85.333h128v-85.333zM768 533.333h-128v-170.667h128v-85.333h-128c-47.061 0-85.333 38.272-85.333 85.333v170.667c0 47.061 38.272 85.333 85.333 85.333h128v-85.333z" />
<glyph unicode="&#xe97a;" glyph-name="bxs-car" data-tags="bxs-car" d="M886.272 526.72l-58.368 175.104c-17.451 52.352-66.219 87.509-121.387 87.509h-389.035c-55.168 0-103.936-35.157-121.387-87.509l-58.368-175.104c-30.763-12.885-52.395-43.264-52.395-78.72v-213.333c0-31.488 17.237-58.709 42.667-73.515v-97.152c0-23.595 19.072-42.667 42.667-42.667h42.667c23.595 0 42.667 19.072 42.667 42.667v85.333h512v-85.333c0-23.595 19.072-42.667 42.667-42.667h42.667c23.595 0 42.667 19.072 42.667 42.667v97.152c25.429 14.805 42.667 41.984 42.667 73.515v213.333c0 35.456-21.632 65.835-52.395 78.72zM317.483 704h388.992c18.389 0 34.688-11.691 40.491-29.184l47.189-141.483h-564.309l47.147 141.483c5.845 17.493 22.144 29.184 40.491 29.184zM234.667 277.333c-35.328 0-64 28.672-64 64s28.672 64 64 64 64-28.672 64-64-28.672-64-64-64zM789.333 277.333c-35.328 0-64 28.672-64 64s28.672 64 64 64 64-28.672 64-64-28.672-64-64-64z" />
<glyph unicode="&#xe97b;" glyph-name="bxs-car-battery" data-tags="bxs-car-battery" d="M853.333 704h-682.667c-47.061 0-85.333-38.272-85.333-85.333v-426.667c0-47.061 38.272-85.333 85.333-85.333h682.667c47.061 0 85.333 38.272 85.333 85.333v426.667c0 47.061-38.272 85.333-85.333 85.333zM384 362.667h-213.333v85.333h213.333v-85.333zM853.333 362.667h-85.333v-85.333h-85.333v85.333h-85.333v85.333h85.333v85.333h85.333v-85.333h85.333v-85.333zM170.667 832h170.667v-85.333h-170.667zM682.667 832h170.667v-85.333h-170.667z" />
<glyph unicode="&#xe97c;" glyph-name="bxs-car-crash" data-tags="bxs-car-crash" d="M112.384 195.499c6.187-27.179 26.411-47.275 51.243-55.083l7.68-33.749h-0.64v-85.333h682.667v85.333h-568.192c0.384 3.883 0.64 7.851-0.299 11.861l-8.363 36.821 441.899 100.523 8.363-36.821c4.651-20.352 24.875-33.067 45.227-28.459l36.821 8.405c20.395 4.608 33.067 24.875 28.459 45.227l-10.709 47.061c19.029 17.749 28.587 44.629 22.4 71.808l-25.173 110.507c-6.357 28.117-27.819 48.64-53.845 55.765l-87.424 144.128c-26.453 43.477-77.568 65.024-127.232 53.888l-335.701-76.373c-49.707-11.307-86.443-52.949-91.477-103.68l-16.512-167.765c-20.352-17.707-30.763-45.44-24.32-73.557l25.131-110.507zM241.237 224.853c-30.464-6.955-60.885 12.16-67.797 42.667-6.955 30.507 12.16 60.885 42.667 67.797s60.885-12.16 67.84-42.667c6.912-30.507-12.203-60.885-42.709-67.797zM720.043 333.739c-30.507-6.955-60.885 12.203-67.84 42.667-6.912 30.507 12.203 60.885 42.709 67.797s60.885-12.203 67.797-42.667c6.955-30.464-12.16-60.843-42.667-67.797zM238.464 567.808l335.744 76.416c13.781 3.115 28.032-2.901 35.413-14.976l67.627-111.488-477.013-108.587 12.757 129.792c1.408 14.080 11.648 25.685 25.472 28.843zM785.28 789.333l-59.947 85.333-21.333-128 106.667-170.667 128-42.667-85.333 108.331 85.333 39.808-85.333 39.808 85.333 153.387z" />
<glyph unicode="&#xe97d;" glyph-name="bxs-card" data-tags="bxs-card" d="M768 234.667c47.061 0 85.333 38.272 85.333 85.333v426.667c0 47.061-38.272 85.333-85.333 85.333h-512c-47.061 0-85.333-38.272-85.333-85.333v-426.667c0-47.061 38.272-85.333 85.333-85.333h512zM170.667 149.333h682.667v-85.333h-682.667z" />
<glyph unicode="&#xe97e;" glyph-name="bxs-caret-down-circle" data-tags="bxs-caret-down-circle" d="M512 874.667c-235.264 0-426.667-191.403-426.667-426.667s191.403-426.667 426.667-426.667c235.307 0 426.667 191.403 426.667 426.667s-191.36 426.667-426.667 426.667zM512 277.333l-213.333 256h426.667l-213.333-256z" />
<glyph unicode="&#xe97f;" glyph-name="bxs-caret-down-square" data-tags="bxs-caret-down-square" d="M213.333 64h597.333c47.061 0 85.333 38.272 85.333 85.333v597.333c0 47.061-38.272 85.333-85.333 85.333h-597.333c-47.061 0-85.333-38.272-85.333-85.333v-597.333c0-47.061 38.272-85.333 85.333-85.333zM725.333 533.333l-213.333-256-213.333 256h426.667z" />
<glyph unicode="&#xe980;" glyph-name="bxs-caret-left-circle" data-tags="bxs-caret-left-circle" d="M512 874.667c-235.264 0-426.667-191.403-426.667-426.667s191.403-426.667 426.667-426.667 426.667 191.403 426.667 426.667c0 235.264-191.403 426.667-426.667 426.667zM597.333 234.667l-256 213.333 256 213.333v-426.667z" />
<glyph unicode="&#xe981;" glyph-name="bxs-caret-left-square" data-tags="bxs-caret-left-square" d="M213.333 64h597.333c47.061 0 85.333 38.272 85.333 85.333v597.333c0 47.061-38.272 85.333-85.333 85.333h-597.333c-47.061 0-85.333-38.272-85.333-85.333v-597.333c0-47.061 38.272-85.333 85.333-85.333zM597.333 661.333v-426.667l-256 213.333 256 213.333z" />
<glyph unicode="&#xe982;" glyph-name="bxs-caret-right-circle" data-tags="bxs-caret-right-circle" d="M512 21.333c235.264 0 426.667 191.403 426.667 426.667s-191.403 426.667-426.667 426.667-426.667-191.403-426.667-426.667c0-235.264 191.403-426.667 426.667-426.667zM426.667 661.333l256-213.333-256-213.333v426.667z" />
<glyph unicode="&#xe983;" glyph-name="bxs-caret-right-square" data-tags="bxs-caret-right-square" d="M213.333 64h597.333c47.061 0 85.333 38.272 85.333 85.333v597.333c0 47.061-38.272 85.333-85.333 85.333h-597.333c-47.061 0-85.333-38.272-85.333-85.333v-597.333c0-47.061 38.272-85.333 85.333-85.333zM426.667 661.333l256-213.333-256-213.333v426.667z" />
<glyph unicode="&#xe984;" glyph-name="bxs-caret-up-circle" data-tags="bxs-caret-up-circle" d="M512 874.667c-235.307 0-426.667-191.403-426.667-426.667s191.36-426.667 426.667-426.667c235.264 0 426.667 191.403 426.667 426.667s-191.403 426.667-426.667 426.667zM298.667 362.667l213.333 256 213.333-256h-426.667z" />
<glyph unicode="&#xe985;" glyph-name="bxs-caret-up-square" data-tags="bxs-caret-up-square" d="M213.333 64h597.333c47.061 0 85.333 38.272 85.333 85.333v597.333c0 47.061-38.272 85.333-85.333 85.333h-597.333c-47.061 0-85.333-38.272-85.333-85.333v-597.333c0-47.061 38.272-85.333 85.333-85.333zM512 618.667l213.333-256h-426.667l213.333 256z" />
<glyph unicode="&#xe986;" glyph-name="bxs-car-garage" data-tags="bxs-car-garage" d="M128 118.485v-54.485c0-23.595 19.072-42.667 42.667-42.667h42.667c23.595 0 42.667 19.072 42.667 42.667v42.667h512v-42.667c0-23.595 19.072-42.667 42.667-42.667h42.667c23.595 0 42.667 19.072 42.667 42.667v54.485c25.429 14.805 42.667 41.984 42.667 73.515v128c0 35.456-21.632 65.792-52.395 78.72l-58.368 175.104c-17.451 52.352-66.219 87.509-121.387 87.509h-389.035c-55.168 0-103.936-35.157-121.387-87.509l-58.368-175.104c-30.763-12.928-52.395-43.264-52.395-78.72v-128c0-31.488 17.237-58.709 42.667-73.515zM234.667 192c-35.328 0-64 28.672-64 64s28.672 64 64 64 64-28.672 64-64-28.672-64-64-64zM789.333 192c-35.328 0-64 28.672-64 64s28.672 64 64 64 64-28.672 64-64-28.672-64-64-64zM317.483 576h388.992c18.389 0 34.688-11.733 40.491-29.184l47.189-141.483h-564.309l47.147 141.483c5.845 17.451 22.144 29.184 40.491 29.184zM938.667 644.779v89.984l-413.184 137.728c-9.173 3.072-19.115 2.901-28.075-0.384l-412.075-149.845v-90.795l427.307 155.392 426.027-142.080z" />
<glyph unicode="&#xe987;" glyph-name="bxs-car-mechanic" data-tags="bxs-car-mechanic" d="M886.272 398.72l-58.368 175.104c-17.451 52.352-66.219 87.509-121.387 87.509h-389.035c-55.168 0-103.936-35.157-121.387-87.509l-58.368-175.104c-30.763-12.928-52.395-43.264-52.395-78.72v-128c0-31.488 17.237-58.709 42.667-73.515v-54.485c0-23.595 19.072-42.667 42.667-42.667h42.667c23.595 0 42.667 19.072 42.667 42.667v42.667h512v-42.667c0-23.595 19.072-42.667 42.667-42.667h42.667c23.595 0 42.667 19.072 42.667 42.667v54.485c25.429 14.805 42.667 41.984 42.667 73.515v128c0 35.456-21.632 65.792-52.395 78.72zM317.483 576h388.992c18.389 0 34.688-11.733 40.491-29.184l47.189-141.483h-564.309l47.147 141.483c5.845 17.451 22.144 29.184 40.491 29.184zM234.667 192c-35.328 0-64 28.672-64 64s28.672 64 64 64 64-28.672 64-64-28.672-64-64-64zM789.333 192c-35.328 0-64 28.672-64 64s28.672 64 64 64 64-28.672 64-64-28.672-64-64-64zM225.152 746.667c14.805-25.387 42.027-42.667 73.515-42.667s58.709 17.28 73.515 42.667h279.68c14.763-25.387 41.984-42.667 73.472-42.667s58.709 17.28 73.515 42.667h-73.515v85.333h73.515c-14.805 25.387-42.027 42.667-73.515 42.667s-58.709-17.28-73.515-42.667h-279.637c-14.805 25.387-42.027 42.667-73.515 42.667s-58.709-17.28-73.515-42.667h73.515v-85.333h-73.515z" />
<glyph unicode="&#xe988;" glyph-name="bxs-carousel" data-tags="bxs-carousel" d="M682.667 832h-341.333c-47.061 0-85.333-38.272-85.333-85.333v-597.333c0-47.061 38.272-85.333 85.333-85.333h341.333c47.061 0 85.333 38.272 85.333 85.333v597.333c0 47.061-38.272 85.333-85.333 85.333zM85.333 661.333v-426.667c0-47.061 38.272-85.333 85.333-85.333v597.333c-47.061 0-85.333-38.272-85.333-85.333zM853.333 746.667v-597.333c47.061 0 85.333 38.272 85.333 85.333v426.667c0 47.061-38.272 85.333-85.333 85.333z" />
<glyph unicode="&#xe989;" glyph-name="bxs-cart" data-tags="bxs-cart" d="M931.072 642.944c-7.979 11.52-21.077 18.389-35.072 18.389h-583.125l-49.237 118.187c-13.312 31.915-44.203 52.48-78.763 52.48h-99.541v-85.333h99.541l202.411-485.76c6.613-15.872 22.144-26.24 39.381-26.24h341.333c17.792 0 33.707 11.051 39.979 27.648l128 341.333c4.907 13.141 3.072 27.819-4.907 39.296zM512 128c0-35.346-28.654-64-64-64s-64 28.654-64 64c0 35.346 28.654 64 64 64s64-28.654 64-64zM810.667 128c0-35.346-28.654-64-64-64s-64 28.654-64 64c0 35.346 28.654 64 64 64s64-28.654 64-64z" />
<glyph unicode="&#xe98a;" glyph-name="bxs-cart-add" data-tags="bxs-cart-add" d="M512 128c0-35.346-28.654-64-64-64s-64 28.654-64 64c0 35.346 28.654 64 64 64s64-28.654 64-64zM810.667 128c0-35.346-28.654-64-64-64s-64 28.654-64 64c0 35.346 28.654 64 64 64s64-28.654 64-64zM896 661.333h-583.083l-49.237 118.187c-13.312 31.915-44.245 52.48-78.805 52.48h-99.541v-85.333h99.584l202.368-485.76c6.613-15.872 22.187-26.24 39.381-26.24h341.333c17.792 0 33.707 11.051 39.979 27.648l128 341.333c4.907 13.141 3.072 27.776-4.864 39.296-8.021 11.52-21.12 18.389-35.115 18.389zM725.333 405.333h-85.333v-85.333h-85.333v85.333h-85.333v85.333h85.333v85.333h85.333v-85.333h85.333v-85.333z" />
<glyph unicode="&#xe98b;" glyph-name="bxs-cart-alt" data-tags="bxs-cart-alt" d="M896 789.333h-810.667v-85.333h98.133l150.229-413.141c12.16-33.621 44.416-56.192 80.171-56.192h354.133v85.333h-354.133l-31.061 85.333h385.195c17.067 0 32.512 10.155 39.211 25.856l128 298.667c5.675 13.184 4.309 28.288-3.584 40.277-7.936 11.989-21.291 19.2-35.627 19.2zM512 128c0-35.346-28.654-64-64-64s-64 28.654-64 64c0 35.346 28.654 64 64 64s64-28.654 64-64zM768 128c0-35.346-28.654-64-64-64s-64 28.654-64 64c0 35.346 28.654 64 64 64s64-28.654 64-64z" />
<glyph unicode="&#xe98c;" glyph-name="bxs-cart-download" data-tags="bxs-cart-download" d="M512 128c0-35.346-28.654-64-64-64s-64 28.654-64 64c0 35.346 28.654 64 64 64s64-28.654 64-64zM810.667 128c0-35.346-28.654-64-64-64s-64 28.654-64 64c0 35.346 28.654 64 64 64s64-28.654 64-64zM896 661.333h-583.083l-49.237 118.187c-13.312 31.915-44.245 52.48-78.805 52.48h-99.541v-85.333h99.584l202.368-485.76c6.613-15.872 22.187-26.24 39.381-26.24h341.333c17.792 0 33.707 11.051 39.979 27.648l128 341.333c4.907 13.141 3.072 27.776-4.864 39.296-8.021 11.52-21.12 18.389-35.115 18.389zM597.333 320l-128 128h85.333v128h85.333v-128h85.333l-128-128z" />
<glyph unicode="&#xe98d;" glyph-name="bxs-car-wash" data-tags="bxs-car-wash" d="M886.272 398.72l-58.368 175.104c-17.451 52.352-66.219 87.509-121.387 87.509h-389.035c-55.168 0-103.936-35.157-121.387-87.509l-58.368-175.104c-30.763-12.928-52.395-43.264-52.395-78.72v-128c0-31.488 17.237-58.709 42.667-73.515v-54.485c0-23.595 19.072-42.667 42.667-42.667h42.667c23.595 0 42.667 19.072 42.667 42.667v42.667h512v-42.667c0-23.595 19.072-42.667 42.667-42.667h42.667c23.595 0 42.667 19.072 42.667 42.667v54.485c25.429 14.805 42.667 41.984 42.667 73.515v128c0 35.456-21.632 65.792-52.395 78.72zM317.483 576h388.992c18.389 0 34.688-11.733 40.491-29.184l47.189-141.483h-564.309l47.147 141.483c5.845 17.451 22.144 29.184 40.491 29.184zM234.667 192c-35.328 0-64 28.672-64 64s28.672 64 64 64 64-28.672 64-64-28.672-64-64-64zM789.333 192c-35.328 0-64 28.672-64 64s28.672 64 64 64 64-28.672 64-64-28.672-64-64-64zM384 773.205c0.213 46.421-44.245 87.509-59.179 100.011-2.859 2.389-6.784 2.389-9.728 0-15.019-12.416-59.307-52.779-59.093-99.968 0-38.187 28.715-69.248 64-69.248s64 31.061 64 69.205zM576 773.205c0.213 46.421-44.245 87.552-59.179 100.011-2.859 2.389-6.784 2.389-9.728 0-15.061-12.416-59.349-52.821-59.136-100.011 0.043-38.144 28.757-69.205 64.043-69.205s64 31.061 64 69.205zM768 773.205c0.213 46.421-44.245 87.552-59.179 100.011-2.859 2.389-6.784 2.389-9.728 0-15.019-12.416-59.307-52.779-59.093-99.968 0-38.187 28.715-69.248 64-69.248s64 31.061 64 69.205z" />
<glyph unicode="&#xe98e;" glyph-name="bxs-category" data-tags="bxs-category" d="M170.667 490.667h256c23.595 0 42.667 19.072 42.667 42.667v256c0 23.595-19.072 42.667-42.667 42.667h-256c-23.595 0-42.667-19.072-42.667-42.667v-256c0-23.595 19.072-42.667 42.667-42.667zM597.333 490.667h256c23.595 0 42.667 19.072 42.667 42.667v256c0 23.595-19.072 42.667-42.667 42.667h-256c-23.595 0-42.667-19.072-42.667-42.667v-256c0-23.595 19.072-42.667 42.667-42.667zM170.667 64h256c23.595 0 42.667 19.072 42.667 42.667v256c0 23.595-19.072 42.667-42.667 42.667h-256c-23.595 0-42.667-19.072-42.667-42.667v-256c0-23.595 19.072-42.667 42.667-42.667zM725.333 64c94.123 0 170.667 76.544 170.667 170.667s-76.544 170.667-170.667 170.667-170.667-76.544-170.667-170.667 76.544-170.667 170.667-170.667z" />
<glyph unicode="&#xe98f;" glyph-name="bxs-category-alt" data-tags="bxs-category-alt" d="M426.667 832h-256c-23.595 0-42.667-19.072-42.667-42.667v-256c0-23.595 19.072-42.667 42.667-42.667h256c23.595 0 42.667 19.072 42.667 42.667v256c0 23.595-19.072 42.667-42.667 42.667zM853.333 405.333h-256c-23.595 0-42.667-19.072-42.667-42.667v-256c0-23.595 19.072-42.667 42.667-42.667h256c23.595 0 42.667 19.072 42.667 42.667v256c0 23.595-19.072 42.667-42.667 42.667zM725.333 832c-94.123 0-170.667-76.544-170.667-170.667s76.544-170.667 170.667-170.667 170.667 76.544 170.667 170.667-76.544 170.667-170.667 170.667zM298.667 405.333c-94.123 0-170.667-76.544-170.667-170.667s76.544-170.667 170.667-170.667 170.667 76.544 170.667 170.667-76.544 170.667-170.667 170.667z" />
<glyph unicode="&#xe990;" glyph-name="bxs-cctv" data-tags="bxs-cctv" d="M794.368 641.621l-521.173 229.419c-10.453 4.608-22.229 4.779-32.853 0.683-10.581-4.224-19.072-12.416-23.552-22.912l-128-298.667c-9.301-21.632 0.768-46.72 22.4-56.021l296.832-127.189-52.907-132.267h-184.448v128h-85.333v-341.333h85.333v128h184.448c35.115 0 66.219 21.077 79.189 53.675l52.139 130.304 145.877-62.507c21.589-9.259 46.549 0.64 55.936 22.101l128 292.565c9.429 21.589-0.384 46.635-21.888 56.149zM850.317 261.47l-79.241 31.665 85.258 213.356 79.241-31.665z" />
<glyph unicode="&#xe991;" glyph-name="bxs-certification" data-tags="bxs-certification" d="M87.339 334.208c2.901-10.923 10.027-20.267 19.883-25.899l81.451-47.104v-93.824c0-23.552 19.072-42.667 42.667-42.667h93.824l47.104-81.493c7.936-13.653 22.229-21.333 36.992-21.333 7.253 0 14.592 1.835 21.291 5.717l81.451 47.061 81.493-47.104c9.771-5.675 21.504-7.168 32.384-4.267 10.923 2.901 20.267 10.069 25.899 19.883l47.061 81.451h93.824c23.595 0 42.667 19.115 42.667 42.667v93.824l81.451 47.104c20.437 11.776 27.435 37.888 15.616 58.283l-47.061 81.493 47.104 81.451c11.776 20.395 4.779 46.507-15.616 58.283l-81.451 47.104v93.824c0 23.552-19.072 42.667-42.667 42.667h-93.824l-47.061 81.451c-5.675 9.813-15.019 16.939-25.899 19.883s-22.571 1.451-32.384-4.267l-81.536-47.061-81.451 47.104c-20.395 11.861-46.507 4.821-58.283-15.573l-47.104-81.493h-93.824c-23.595 0-42.667-19.115-42.667-42.667v-93.824l-81.451-47.147c-9.813-5.675-16.939-14.976-19.883-25.899s-1.365-22.571 4.309-32.384l47.061-81.451-47.104-81.451c-5.632-9.771-7.168-21.419-4.267-32.341z" />
<glyph unicode="&#xe992;" glyph-name="bxs-chalkboard" data-tags="bxs-chalkboard" d="M853.333 789.333h-682.667c-47.061 0-85.333-38.272-85.333-85.333v-426.667c0-47.061 38.272-85.333 85.333-85.333h170.667l-76.8-102.4 68.267-51.2 115.2 153.6h128l115.2-153.6 68.267 51.2-76.8 102.4h170.667c47.061 0 85.333 38.272 85.333 85.333v426.667c0 47.061-38.272 85.333-85.333 85.333zM213.333 405.333h170.667v-85.333h-170.667v85.333z" />
<glyph unicode="&#xe993;" glyph-name="bxs-chart" data-tags="bxs-chart" d="M810.667 64c47.061 0 85.333 38.272 85.333 85.333v597.333c0 47.061-38.272 85.333-85.333 85.333h-597.333c-47.061 0-85.333-38.272-85.333-85.333v-597.333c0-47.061 38.272-85.333 85.333-85.333h597.333zM407.595 547.925l170.667-85.333 66.261 132.48 76.331-38.187-104.405-208.853-170.667 85.333-66.261-132.48-76.331 38.187 104.405 208.853z" />
<glyph unicode="&#xe994;" glyph-name="bxs-chat" data-tags="bxs-chat" d="M170.667 192h85.333v-174.123l217.643 174.123h209.024c47.061 0 85.333 38.272 85.333 85.333v341.333c0 47.061-38.272 85.333-85.333 85.333h-512c-47.061 0-85.333-38.272-85.333-85.333v-341.333c0-47.061 38.272-85.333 85.333-85.333zM853.333 874.667h-512c-47.061 0-85.333-38.272-85.333-85.333h512c47.061 0 85.333-38.272 85.333-85.333v-341.333c47.061 0 85.333 38.272 85.333 85.333v341.333c0 47.061-38.272 85.333-85.333 85.333z" />
<glyph unicode="&#xe995;" glyph-name="bxs-checkbox" data-tags="bxs-checkbox" d="M298.667 149.333h426.667c47.104 0 85.333 38.229 85.333 85.333v426.667c0 47.104-38.229 85.333-85.333 85.333h-426.667c-47.104 0-85.333-38.229-85.333-85.333v-426.667c0-47.104 38.229-85.333 85.333-85.333z" />
<glyph unicode="&#xe996;" glyph-name="bxs-checkbox-checked" data-tags="bxs-checkbox-checked" d="M298.667 746.667c-47.104 0-85.333-38.229-85.333-85.333v-426.667c0-47.104 38.229-85.333 85.333-85.333h426.667c47.104 0 85.333 38.229 85.333 85.333v426.667c0 47.104-38.229 85.333-85.333 85.333h-426.667zM469.333 302.336l-115.499 115.499 60.331 60.331 55.168-55.168 161.835 161.835 60.331-60.331-222.165-222.165z" />
<glyph unicode="&#xe997;" glyph-name="bxs-checkbox-minus" data-tags="bxs-checkbox-minus" d="M725.333 746.667h-426.667c-47.061 0-85.333-38.272-85.333-85.333v-426.667c0-47.061 38.272-85.333 85.333-85.333h426.667c47.061 0 85.333 38.272 85.333 85.333v426.667c0 47.061-38.272 85.333-85.333 85.333zM682.667 405.333h-341.333v85.333h341.333v-85.333z" />
<glyph unicode="&#xe998;" glyph-name="bxs-check-circle" data-tags="bxs-check-circle" d="M512 874.667c-235.264 0-426.667-191.403-426.667-426.667s191.403-426.667 426.667-426.667 426.667 191.403 426.667 426.667c0 235.264-191.403 426.667-426.667 426.667zM426.709 259.712l-158.421 158.080 60.245 60.416 98.091-97.92 225.877 225.877 60.331-60.331-286.123-286.123z" />
<glyph unicode="&#xe999;" glyph-name="bxs-check-shield" data-tags="bxs-check-shield" d="M490.155 31.829c12.544-6.699 28.288-6.656 40.832 0.043 341.845 183.637 366.123 542.421 365.824 644.437-0.043 16.811-10.027 31.744-25.429 38.528l-343.467 152.149c-11.051 4.864-23.637 4.864-34.688-0.043l-341.077-152.149c-15.147-6.784-25.045-21.461-25.259-38.059-1.451-101.504 18.987-461.056 363.264-644.907zM370.091 520.832l97.835-97.835 183.168 183.168 60.331-60.331-243.499-243.499-158.165 158.165 60.331 60.331z" />
<glyph unicode="&#xe99a;" glyph-name="bxs-check-square" data-tags="bxs-check-square" d="M810.667 832h-597.333c-47.061 0-85.333-38.272-85.333-85.333v-597.333c0-47.061 38.272-85.333 85.333-85.333h597.333c47.061 0 85.333 38.272 85.333 85.333v597.333c0 47.061-38.272 85.333-85.333 85.333zM472.192 256.811l-161.024 161.024 60.331 60.331 94.976-94.976 183.424 220.117 65.579-54.613-243.285-291.883z" />
<glyph unicode="&#xe99b;" glyph-name="bxs-chess" data-tags="bxs-chess" d="M896 874.667h-768c-23.595 0-42.667-19.115-42.667-42.667v-768c0-23.552 19.072-42.667 42.667-42.667h768c23.595 0 42.667 19.115 42.667 42.667v768c0 23.552-19.072 42.667-42.667 42.667zM853.333 618.667h-170.667v-170.667h170.667v-170.667h-170.667v-170.667h-170.667v170.667h-170.667v-170.667h-170.667v170.667h170.667v170.667h-170.667v170.667h170.667v170.667h170.667v-170.667h170.667v170.667h170.667v-170.667zM341.333 618.667h170.667v-170.667h-170.667zM512 448h170.667v-170.667h-170.667z" />
<glyph unicode="&#xe99c;" glyph-name="bxs-chevron-down" data-tags="bxs-chevron-down" d="M722.731 621.269l-210.731-210.773-210.731 210.773-90.539-90.539 301.269-301.227 301.269 301.227z" />
<glyph unicode="&#xe99d;" glyph-name="bxs-chevron-down-circle" data-tags="bxs-chevron-down-circle" d="M512 874.667c-235.264 0-426.667-191.403-426.667-426.667s191.403-426.667 426.667-426.667c235.264 0 426.667 191.403 426.667 426.667s-191.403 426.667-426.667 426.667zM512 259.669l-243.499 243.499 60.331 60.331 183.168-183.168 183.168 183.168 60.331-60.331-243.499-243.499z" />
<glyph unicode="&#xe99e;" glyph-name="bxs-chevron-down-square" data-tags="bxs-chevron-down-square" d="M213.333 64h597.333c47.061 0 85.333 38.272 85.333 85.333v597.333c0 47.061-38.272 85.333-85.333 85.333h-597.333c-47.061 0-85.333-38.272-85.333-85.333v-597.333c0-47.061 38.272-85.333 85.333-85.333zM328.832 563.499l183.168-183.168 183.168 183.168 60.331-60.331-243.499-243.499-243.499 243.499 60.331 60.331z" />
<glyph unicode="&#xe99f;" glyph-name="bxs-chevron-left" data-tags="bxs-chevron-left" d="M594.731 749.269l-301.227-301.269 301.227-301.269 90.539 90.539-210.773 210.731 210.773 210.731z" />
<glyph unicode="&#xe9a0;" glyph-name="bxs-chevron-left-circle" data-tags="bxs-chevron-left-circle" d="M512 874.667c-235.264 0-426.667-191.403-426.667-426.667s191.403-426.667 426.667-426.667 426.667 191.403 426.667 426.667-191.403 426.667-426.667 426.667zM627.499 264.832l-60.331-60.331-243.499 243.499 243.499 243.499 60.331-60.331-183.168-183.168 183.168-183.168z" />
<glyph unicode="&#xe9a1;" glyph-name="bxs-chevron-left-square" data-tags="bxs-chevron-left-square" d="M213.333 832c-47.061 0-85.333-38.272-85.333-85.333v-597.333c0-47.061 38.272-85.333 85.333-85.333h597.333c47.061 0 85.333 38.272 85.333 85.333v597.333c0 47.061-38.272 85.333-85.333 85.333h-597.333zM627.499 264.832l-60.331-60.331-243.499 243.499 243.499 243.499 60.331-60.331-183.168-183.168 183.168-183.168z" />
<glyph unicode="&#xe9a2;" glyph-name="bxs-chevron-right" data-tags="bxs-chevron-right" d="M429.269 146.731l301.227 301.269-301.227 301.269-90.539-90.539 210.773-210.731-210.773-210.731z" />
<glyph unicode="&#xe9a3;" glyph-name="bxs-chevron-right-circle" data-tags="bxs-chevron-right-circle" d="M512 874.667c-235.264 0-426.667-191.403-426.667-426.667s191.403-426.667 426.667-426.667 426.667 191.403 426.667 426.667-191.403 426.667-426.667 426.667zM456.832 204.501l-60.331 60.331 183.168 183.168-183.168 183.168 60.331 60.331 243.499-243.499-243.499-243.499z" />
<glyph unicode="&#xe9a4;" glyph-name="bxs-chevron-right-square" data-tags="bxs-chevron-right-square" d="M128 746.667v-597.333c0-47.061 38.272-85.333 85.333-85.333h597.333c47.061 0 85.333 38.272 85.333 85.333v597.333c0 47.061-38.272 85.333-85.333 85.333h-597.333c-47.061 0-85.333-38.272-85.333-85.333zM396.501 631.168l60.331 60.331 243.499-243.499-243.499-243.499-60.331 60.331 183.168 183.168-183.168 183.168z" />
<glyph unicode="&#xe9a5;" glyph-name="bxs-chevrons-down" data-tags="bxs-chevrons-down" d="M722.731 493.269l-210.731-210.773-210.731 210.773-90.539-90.539 301.269-301.227 301.269 301.227zM722.731 791.936l-210.731-210.773-210.731 210.773-90.539-90.539 301.269-301.227 301.269 301.227z" />
<glyph unicode="&#xe9a6;" glyph-name="bxs-chevrons-left" data-tags="bxs-chevrons-left" d="M346.496 448l210.773 210.731-90.539 90.539-301.227-301.269 301.227-301.269 90.539 90.539zM765.397 749.269l-301.227-301.269 301.227-301.269 90.539 90.539-210.773 210.731 210.773 210.731z" />
<glyph unicode="&#xe9a7;" glyph-name="bxs-chevrons-right" data-tags="bxs-chevrons-right" d="M557.269 749.269l-90.539-90.539 210.773-210.731-210.773-210.731 90.539-90.539 301.227 301.269zM258.603 146.731l301.227 301.269-301.227 301.269-90.539-90.539 210.773-210.731-210.773-210.731z" />
<glyph unicode="&#xe9a8;" glyph-name="bxs-chevrons-up" data-tags="bxs-chevrons-up" d="M512 794.496l-301.269-301.227 90.539-90.539 210.731 210.773 210.731-210.773 90.539 90.539zM210.731 194.603l90.539-90.539 210.731 210.773 210.731-210.773 90.539 90.539-301.269 301.227z" />
<glyph unicode="&#xe9a9;" glyph-name="bxs-chevron-up" data-tags="bxs-chevron-up" d="M512 666.496l-301.269-301.227 90.539-90.539 210.731 210.773 210.731-210.773 90.539 90.539z" />
<glyph unicode="&#xe9aa;" glyph-name="bxs-chevron-up-circle" data-tags="bxs-chevron-up-circle" d="M512 874.667c-235.264 0-426.667-191.403-426.667-426.667s191.403-426.667 426.667-426.667 426.667 191.403 426.667 426.667-191.403 426.667-426.667 426.667zM695.168 332.501l-183.168 183.168-183.168-183.168-60.331 60.331 243.499 243.499 243.499-243.499-60.331-60.331z" />
<glyph unicode="&#xe9ab;" glyph-name="bxs-chevron-up-square" data-tags="bxs-chevron-up-square" d="M213.333 64h597.333c47.061 0 85.333 38.272 85.333 85.333v597.333c0 47.061-38.272 85.333-85.333 85.333h-597.333c-47.061 0-85.333-38.272-85.333-85.333v-597.333c0-47.061 38.272-85.333 85.333-85.333zM512 636.331l243.499-243.499-60.331-60.331-183.168 183.168-183.168-183.168-60.331 60.331 243.499 243.499z" />
<glyph unicode="&#xe9ac;" glyph-name="bxs-chip" data-tags="bxs-chip" d="M810.667 661.333c0 47.104-38.229 85.333-85.333 85.333h-42.667v128h-85.333v-128h-170.667v128h-85.333v-128h-42.667c-47.104 0-85.333-38.229-85.333-85.333v-42.667h-128v-85.333h128v-170.667h-128v-85.333h128v-42.667c0-47.104 38.229-85.333 85.333-85.333h42.667v-128h85.333v128h170.667v-128h85.333v128h42.667c47.104 0 85.333 38.229 85.333 85.333v42.667h128v85.333h-128v170.667h128v85.333h-128v42.667zM640 320h-256v256h256v-256z" />
<glyph unicode="&#xe9ad;" glyph-name="bxs-church" data-tags="bxs-church" d="M426.667 21.333v170.667c0 47.104 38.229 85.333 85.333 85.333s85.333-38.229 85.333-85.333v-170.667h170.667v426.667c0 14.976-7.893 28.885-20.693 36.565l-192.64 115.584v103.851h85.333v85.333h-85.333v85.333h-85.333v-85.333h-85.333v-85.333h85.333v-103.851l-192.64-115.584c-12.8-7.68-20.693-21.589-20.693-36.565v-426.667h170.667zM128 21.333h85.333v346.368l-104.405-52.224c-14.464-7.211-23.595-21.973-23.595-38.144v-213.333c0-23.552 19.072-42.667 42.667-42.667zM915.072 315.52l-104.405 52.181v-346.368h85.333c23.595 0 42.667 19.115 42.667 42.667v213.333c0 16.171-9.131 30.933-23.595 38.187z" />
<glyph unicode="&#xe9ae;" glyph-name="bxs-circle" data-tags="bxs-circle" d="M512 874.667c-235.264 0-426.667-191.403-426.667-426.667s191.403-426.667 426.667-426.667 426.667 191.403 426.667 426.667-191.403 426.667-426.667 426.667z" />
<glyph unicode="&#xe9af;" glyph-name="bxs-city" data-tags="bxs-city" d="M896 704h-170.667v128c0 23.595-19.072 42.667-42.667 42.667h-341.333c-23.595 0-42.667-19.072-42.667-42.667v-298.667h-170.667c-23.595 0-42.667-19.072-42.667-42.667v-341.333c0-23.595 19.072-42.667 42.667-42.667h768c23.595 0 42.667 19.072 42.667 42.667v512c0 23.595-19.072 42.667-42.667 42.667zM256 192h-85.333v85.333h85.333v-85.333zM256 362.667h-85.333v85.333h85.333v-85.333zM469.333 192h-85.333v85.333h85.333v-85.333zM469.333 362.667h-85.333v85.333h85.333v-85.333zM469.333 533.333h-85.333v85.333h85.333v-85.333zM469.333 704h-85.333v85.333h85.333v-85.333zM640 192h-85.333v85.333h85.333v-85.333zM640 362.667h-85.333v85.333h85.333v-85.333zM640 533.333h-85.333v85.333h85.333v-85.333zM640 704h-85.333v85.333h85.333v-85.333zM853.333 192h-85.333v85.333h85.333v-85.333zM853.333 362.667h-85.333v85.333h85.333v-85.333zM853.333 533.333h-85.333v85.333h85.333v-85.333z" />
<glyph unicode="&#xe9b0;" glyph-name="bxs-clinic" data-tags="bxs-clinic" d="M927.701 433.877l-384 426.667c-16.171 18.005-47.232 18.005-63.403 0l-384-426.667c-11.307-12.501-14.123-30.507-7.253-45.909 6.827-15.403 22.101-25.301 38.955-25.301h85.333v-298.667c0-23.552 19.072-42.667 42.667-42.667h512c23.595 0 42.667 19.115 42.667 42.667v298.667h85.333c16.853 0 32.128 9.899 38.955 25.301 6.869 15.403 4.053 33.365-7.253 45.909zM682.667 320h-128v-128h-85.333v128h-128v85.333h128v128h85.333v-128h128v-85.333z" />
<glyph unicode="&#xe9b1;" glyph-name="bxs-cloud" data-tags="bxs-cloud" d="M808.277 485.888c-18.645 146.859-144.384 260.779-296.277 260.779-117.589 0-219.733-68.736-266.368-177.067-91.648-27.392-160.299-113.92-160.299-206.933 0-117.632 95.701-213.333 213.333-213.333h469.333c94.123 0 170.667 76.544 170.667 170.667 0 80.213-55.68 147.712-130.389 165.888z" />
<glyph unicode="&#xe9b2;" glyph-name="bxs-cloud-download" data-tags="bxs-cloud-download" d="M808.277 485.888c-18.645 146.859-144.384 260.779-296.277 260.779-117.589 0-219.733-68.693-266.368-177.024-91.648-27.435-160.299-113.963-160.299-206.976 0-113.365 89.131-205.44 200.875-212.096v-1.237h481.792c94.123 0 170.667 76.544 170.667 170.667 0 80.256-55.68 147.712-130.389 165.888zM341.333 448h128v128h85.333v-128h128l-170.667-213.333-170.667 213.333z" />
</font>
</defs>
</svg>
